找回密码

蓝光电影网

查看: 23|回复: 0

[剧情] 拳打脚踢/混战 Donnybrook.2018.1080p.BluRay.REMUX.AVC.DTS-HD.MA.5.1-FGT 25.77GB

[复制链接]
蓝光币
519
发表于 2019-7-20 23:46:54 | 显示全部楼层 |阅读模式


◎译  名 拳打脚踢 / 混战
◎片  名 Donnybrook
◎年  代 2018
◎产  地 美国
◎类  别 剧情
◎语  言 英语
◎上映日期 2018-09-07(多伦多电影节) / 2019-02-15(美国)
◎IMDb评分  5.6/10 from 656 users
◎IMDb链接  http://www.imdb.com/title/tt7087210
◎豆瓣评分 4.7/10 from 153 users
◎豆瓣链接 https://movie.douban.com/subject/27174607/
◎片  长 101分钟
◎导  演 Tim Sutton
◎编  剧 Tim Sutton / Frank Bill
◎主  演 弗兰克·格里罗 Frank Grillo
      杰米·贝尔 Jamie Bell
      玛格丽特·库里 Margaret Qualley
      詹姆斯·戴尔 James Badge Dale
      克里斯·勃朗宁 Chris Browning
      亚当·巴特利 Adam Bartley
      帕特·希利 Pat Healy
      詹姆斯·兰德里·赫伯特 James Landry Hébert
      凯文·克劳利 Kevin Crowley
      克里斯汀·岱伊 Christine Dye
      理查德·杜恩 Richard Doone
      Valerie Jane Parker
      Anita Farmer Bergman

◎标  签 美国 | 犯罪 | 暴力 | 2018 | 剧情 | 美国电影 | 杰米·贝尔 | 玛格丽特·库里
◎简  介  
  改编自Frank Bill2013年所著同名黑色小说,报告一位前水兵陆战队成员由于生活拮据,去加入了“Donnybrook”——一项在偏僻地域极为著名的白手拳击角逐,得胜者将会获得10万美圆嘉奖。
  1. Video
  2. ID                                       : 1
  3. Format                                   : AVC
  4. Format/Info                              : Advanced Video Codec
  5. Format profile                           : [email protected]
  6. Format settings                          : CABAC / 4 Ref Frames
  7. Format settings, CABAC                   : Yes
  8. Format settings, ReFrames                : 4 frames
  9. Codec ID                                 : V_MPEG4/ISO/AVC
  10. Duration                                 : 1 h 42 min
  11. Bit rate mode                            : Variable
  12. Bit rate                                 : 31.4 Mb/s
  13. Maximum bit rate                         : 34.0 Mb/s
  14. Width                                    : 1 920 pixels
  15. Height                                   : 1 080 pixels
  16. Display aspect ratio                     : 16:9
  17. Frame rate mode                          : Constant
  18. Frame rate                               : 23.976 (24000/1001) FPS
  19. Color space                              : YUV
  20. Chroma subsampling                       : 4:2:0
  21. Bit depth                                : 8 bits
  22. Scan type                                : Progressive
  23. Bits/(Pixel*Frame)                       : 0.632
  24. Stream size                              : 22.4 GiB (87%)
  25. Language                                 : English
  26. Default                                  : No
  27. Forced                                   : No
  28. Audio #1
  29. ID                                       : 2
  30. Format                                   : DTS XLL
  31. Format/Info                              : Digital Theater Systems
  32. Commercial name                          : DTS-HD Master Audio
  33. Codec ID                                 : A_DTS
  34. Duration                                 : 1 h 42 min
  35. Bit rate mode                            : Variable
  36. Bit rate                                 : 3 095 kb/s
  37. Channel(s)                               : 6 channels
  38. Channel layout                           : C L R Ls Rs LFE
  39. Sampling rate                            : 48.0 kHz
  40. Frame rate                               : 93.750 FPS (512 SPF)
  41. Bit depth                                : 24 bits
  42. Compression mode                         : Lossless
  43. Stream size                              : 2.21 GiB (9%)
  44. Title                                    : Surround 5.1
  45. Language                                 : English
  46. Default                                  : Yes
  47. Forced                                   : No
  48. Audio #2
  49. ID                                       : 3
  50. Format                                   : DTS
  51. Format/Info                              : Digital Theater Systems
  52. Codec ID                                 : A_DTS
  53. Duration                                 : 1 h 42 min
  54. Bit rate mode                            : Constant
  55. Bit rate                                 : 768 kb/s
  56. Channel(s)                               : 6 channels
  57. Channel layout                           : C L R Ls Rs LFE
  58. Sampling rate                            : 48.0 kHz
  59. Frame rate                               : 93.750 FPS (512 SPF)
  60. Bit depth                                : 24 bits
  61. Compression mode                         : Lossy
  62. Stream size                              : 562 MiB (2%)
  63. Title                                    : Surround 5.1
  64. Language                                 : Russian
  65. Default                                  : No
  66. Forced                                   : No
  67. Audio #3
  68. ID                                       : 4
  69. Format                                   : DTS
  70. Format/Info                              : Digital Theater Systems
  71. Codec ID                                 : A_DTS
  72. Duration                                 : 1 h 42 min
  73. Bit rate mode                            : Constant
  74. Bit rate                                 : 768 kb/s
  75. Channel(s)                               : 6 channels
  76. Channel layout                           : C L R Ls Rs LFE
  77. Sampling rate                            : 48.0 kHz
  78. Frame rate                               : 93.750 FPS (512 SPF)
  79. Bit depth                                : 24 bits
  80. Compression mode                         : Lossy
  81. Stream size                              : 562 MiB (2%)
  82. Title                                    : Surround 5.1
  83. Language                                 : Polish
  84. Default                                  : No
  85. Forced                                   : No
  86. Text #1
  87. ID                                       : 5
  88. Format                                   : UTF-8
  89. Codec ID                                 : S_TEXT/UTF8
  90. Codec ID/Info                            : UTF-8 Plain Text
  91. Duration                                 : 1 h 39 min
  92. Bit rate                                 : 21 b/s
  93. Count of elements                        : 501
  94. Stream size                              : 15.5 KiB (0%)
  95. Title                                    : English-SRT
  96. Language                                 : English
  97. Default                                  : Yes
  98. Forced                                   : No
  99. Text #2
  100. ID                                       : 6
  101. Format                                   : PGS
  102. Muxing mode                              : zlib
  103. Codec ID                                 : S_HDMV/PGS
  104. Codec ID/Info                            : Picture based subtitle format used on BDs/HD-DVDs
  105. Duration                                 : 1 h 39 min
  106. Bit rate                                 : 20.9 kb/s
  107. Count of elements                        : 1194
  108. Stream size                              : 14.9 MiB (0%)
  109. Title                                    : English-PGS
  110. Language                                 : English
  111. Default                                  : No
  112. Forced                                   : No
  113. Text #3
  114. ID                                       : 7
  115. Format                                   : PGS
  116. Muxing mode                              : zlib
  117. Codec ID                                 : S_HDMV/PGS
  118. Codec ID/Info                            : Picture based subtitle format used on BDs/HD-DVDs
  119. Duration                                 : 1 h 39 min
  120. Bit rate                                 : 15.4 kb/s
  121. Count of elements                        : 976
  122. Stream size                              : 11.0 MiB (0%)
  123. Title                                    : Danish-PGS
  124. Language                                 : Danish
  125. Default                                  : No
  126. Forced                                   : No
  127. Text #4
  128. ID                                       : 8
  129. Format                                   : PGS
  130. Muxing mode                              : zlib
  131. Codec ID                                 : S_HDMV/PGS
  132. Codec ID/Info                            : Picture based subtitle format used on BDs/HD-DVDs
  133. Duration                                 : 1 h 39 min
  134. Bit rate                                 : 15.9 kb/s
  135. Count of elements                        : 976
  136. Stream size                              : 11.3 MiB (0%)
  137. Title                                    : Finnish-PGS
  138. Language                                 : Finnish
  139. Default                                  : No
  140. Forced                                   : No
  141. Text #5
  142. ID                                       : 9
  143. Format                                   : PGS
  144. Muxing mode                              : zlib
  145. Codec ID                                 : S_HDMV/PGS
  146. Codec ID/Info                            : Picture based subtitle format used on BDs/HD-DVDs
  147. Duration                                 : 1 h 39 min
  148. Bit rate                                 : 15.9 kb/s
  149. Count of elements                        : 974
  150. Stream size                              : 11.4 MiB (0%)
  151. Title                                    : Norwegian-PGS
  152. Language                                 : Norwegian
  153. Default                                  : No
  154. Forced                                   : No
  155. Text #6
  156. ID                                       : 10
  157. Format                                   : PGS
  158. Muxing mode                              : zlib
  159. Codec ID                                 : S_HDMV/PGS
  160. Codec ID/Info                            : Picture based subtitle format used on BDs/HD-DVDs
  161. Duration                                 : 1 h 39 min
  162. Bit rate                                 : 15.3 kb/s
  163. Count of elements                        : 962
  164. Stream size                              : 10.9 MiB (0%)
  165. Title                                    : Swedish-PGS
  166. Language                                 : Swedish
  167. Default                                  : No
  168. Forced                                   : No
  169. Text #7
  170. ID                                       : 11
  171. Format                                   : PGS
  172. Muxing mode                              : zlib
  173. Codec ID                                 : S_HDMV/PGS
  174. Codec ID/Info                            : Picture based subtitle format used on BDs/HD-DVDs
  175. Duration                                 : 1 h 39 min
  176. Bit rate                                 : 14.9 kb/s
  177. Count of elements                        : 978
  178. Stream size                              : 10.7 MiB (0%)
  179. Title                                    : Russian-PGS
  180. Language                                 : Russian
  181. Default                                  : No
  182. Forced                                   : No
  183. Text #8
  184. ID                                       : 12
  185. Format                                   : PGS
  186. Muxing mode                              : zlib
  187. Codec ID                                 : S_HDMV/PGS
  188. Codec ID/Info                            : Picture based subtitle format used on BDs/HD-DVDs
  189. Duration                                 : 1 h 39 min
  190. Bit rate                                 : 12.9 kb/s
  191. Count of elements                        : 972
  192. Stream size                              : 9.20 MiB (0%)
  193. Title                                    : Polish-FORCED-PGS
  194. Language                                 : Polish
  195. Default                                  : No
  196. Forced                                   : No
  197. Text #9
  198. ID                                       : 13
  199. Format                                   : PGS
  200. Muxing mode                              : zlib
  201. Codec ID                                 : S_HDMV/PGS
  202. Codec ID/Info                            : Picture based subtitle format used on BDs/HD-DVDs
  203. Duration                                 : 50 min 27 s
  204. Bit rate                                 : 90 b/s
  205. Count of elements                        : 4
  206. Stream size                              : 33.3 KiB (0%)
  207. Title                                    : Russian-FORCED-PGS
  208. Language                                 : Russian
  209. Default                                  : No
  210. Forced                                   : No
  211. Menu
  212. 00:00:00.083                             : en:Chapter 01
  213. 00:09:45.418                             : en:Chapter 02
  214. 00:17:26.336                             : en:Chapter 03
  215. 00:27:43.828                             : en:Chapter 04
  216. 00:35:07.522                             : en:Chapter 05
  217. 00:45:18.382                             : en:Chapter 06
  218. 00:51:42.432                             : en:Chapter 07
  219. 01:01:52.291                             : en:Chapter 08
  220. 01:11:35.207                             : en:Chapter 09
  221. 01:19:04.656                             : en:Chapter 10
  222. 01:26:15.211                             : en:Chapter 11
  223. 01:34:37.296                             : en:Chapter 12
  224. 01:42:10.207                             : en:Chapter 13
复制代码






                                       
                                       

                                       
                                       
                                       




回复

使用道具 举报

懒得打字嘛,点击右侧快捷回复 【右侧内容,后台自定义】
您需要登录后才可以回帖 登录 | 立即加入

本版积分规则

Archiver|小黑屋| 蓝光电影网 |网站地图

Copyright © 2021 Comsenz Inc. Powered by 蓝光电影网

蓝光电影网

本站内容由用户自主分享和转载自互联网,转载目的在于传递更多信息,并不代表本网赞同其观点和对其真实性负责。

如有侵权、违反国家法律政策行为,请联系我们,我们会第一时间及时清除和处理!

举报反馈邮箱:[email protected]

快速回复 返回顶部 返回列表