找回密码

蓝光电影网

查看: 13|回复: 0

[其他] 消失在第七街 Vanishing.On.7th.Street.2010.1080p.BluRay.x264.DTS-FGT 7.95GB

[复制链接]
蓝光币
519
发表于 2020-9-25 08:26:24 | 显示全部楼层 |阅读模式


◎译  名 消失在第七街
◎片  名 Vanishing on 7th Street
◎年  代 2010
◎产  地 美国
◎类  别 悬疑 / 惊悚 / 可骇
◎语  言 英语
◎上映日期 2011-02-18(美国)
◎IMDb评分  4.9/10 from 24726 users
◎IMDb链接  https://www.imdb.com/title/tt1452628/
◎豆瓣评分 5.5/10 from 6139 users
◎豆瓣链接 https://movie.douban.com/subject/3789921/
◎片  长 92分钟
◎导  演 布拉德·安德森 Brad Anderson
◎编  剧 安东尼·贾斯温斯基 Anthony Jaswinski
◎主  演 约翰·雷吉扎莫 John Leguizamo
       海登·克里斯滕森 Hayden Christensen
       坦迪·牛顿 Thandie Newton
       雅各布·拉提摩尔 Jacob Latimore
◎标  签 惊悚 | 悬疑 | 美国 | 科幻 | 可骇 | 美国电影 | 2011 | HaydenChristensen
◎简  介


  毫无征象的夜晚,黑暗忽然来临。这好像鬼魅的黑暗,吞噬掉大城市中一切的能源。随着能源的损失,人类也好像蒸发了一般凭空消失,只留下衣服和随身物品,宣布着他们一曾存在。白天收缩,黑夜耽误,少数的幸存者仍试图匹敌逡巡四周的死神。在一家另有亮光的小酒馆里,电视台主持人卢克(海登·克里斯滕森 Hayden Christensen 饰)、孤僻的放映师保罗(约翰·雷吉扎莫 John Leguizamo 饰)、寻觅尚在襁褓中孩子的临床医师罗斯玛丽(桑迪·牛顿 Thandie Newton 饰)以及12岁的黑人男孩詹姆斯(雅克布·拉铁摩尔 Jacob Latimore 饰)聚集于此。
  
  芝加哥似乎是他们最初的希望,他们必须想尽一切法子逃离永久黑暗的吞噬……
  1. Video
  2. ID                                       : 1
  3. Format                                   : AVC
  4. Format/Info                              : Advanced Video Codec
  5. Format profile                           : [email protected]
  6. Format settings                          : CABAC / 5 Ref Frames
  7. Format settings, CABAC                   : Yes
  8. Format settings, Reference frames        : 5 frames
  9. Codec ID                                 : V_MPEG4/ISO/AVC
  10. Duration                                 : 1 h 31 min
  11. Bit rate                                 : 11.0 Mb/s
  12. Width                                    : 1 920 pixels
  13. Height                                   : 800 pixels
  14. Display aspect ratio                     : 2.40:1
  15. Frame rate mode                          : Constant
  16. Frame rate                               : 23.976 FPS
  17. Color space                              : YUV
  18. Chroma subsampling                       : 4:2:0
  19. Bit depth                                : 8 bits
  20. Scan type                                : Progressive
  21. Bits/(Pixel*Frame)                       : 0.297
  22. Stream size                              : 6.82 GiB (86%)
  23. Writing library                          : x264 core 115 r1947 b5a8ad7
  24. Encoding settings                        : cabac=1 / ref=5 / deblock=1:0:0 / analyse=0x3:0x133 / me=umh / subme=7 / psy=1 / psy_rd=1.00:0.10 / mixed_ref=1 / me_range=16 / chroma_me=1 / trellis=1 / 8x8dct=1 / cqm=0 / deadzone=21,11 / fast_pskip=0 / chroma_qp_offset=-5 / threads=12 / sliced_threads=0 / nr=0 / decimate=0 / interlaced=0 / bluray_compat=0 / constrained_intra=0 / bframes=3 / b_pyramid=2 / b_adapt=1 / b_bias=0 / direct=1 / weightb=1 / open_gop=0 / weightp=2 / keyint=250 / keyint_min=23 / scenecut=40 / intra_refresh=0 / rc_lookahead=40 / rc=2pass / mbtree=1 / bitrate=10956 / ratetol=1.0 / qcomp=0.60 / qpmin=10 / qpmax=51 / qpstep=4 / cplxblur=20.0 / qblur=0.5 / ip_ratio=1.40 / aq=1:1.20
  25. Language                                 : English
  26. Default                                  : Yes
  27. Forced                                   : No

  28. Audio
  29. ID                                       : 2
  30. Format                                   : DTS
  31. Format/Info                              : Digital Theater Systems
  32. Codec ID                                 : A_DTS
  33. Duration                                 : 1 h 31 min
  34. Bit rate mode                            : Constant
  35. Bit rate                                 : 1 509 kb/s
  36. Channel(s)                               : 6 channels
  37. Channel layout                           : C L R Ls Rs LFE
  38. Sampling rate                            : 48.0 kHz
  39. Frame rate                               : 93.750 FPS (512 SPF)
  40. Bit depth                                : 24 bits
  41. Compression mode                         : Lossy
  42. Delay relative to video                  : 11 ms
  43. Stream size                              : 990 MiB (12%)
  44. Language                                 : English
  45. Default                                  : Yes
  46. Forced                                   : No
复制代码






                                       
                                       

                                       
                                       
                                       




回复

使用道具 举报

懒得打字嘛,点击右侧快捷回复 【右侧内容,后台自定义】
您需要登录后才可以回帖 登录 | 立即加入

本版积分规则

Archiver|小黑屋| 蓝光电影网 |网站地图

Copyright © 2021 Comsenz Inc. Powered by 蓝光电影网

蓝光电影网

本站内容由用户自主分享和转载自互联网,转载目的在于传递更多信息,并不代表本网赞同其观点和对其真实性负责。

如有侵权、违反国家法律政策行为,请联系我们,我们会第一时间及时清除和处理!

举报反馈邮箱:[email protected]

快速回复 返回顶部 返回列表