找回密码

蓝光电影网

查看: 64|回复: 0

[动作] 异星危机 Breach.2020.1080p.BluRay.REMUX.AVC.DTS-HD.MA.5.1-FGT 19.77GB

[复制链接]
蓝光币
519
发表于 2021-2-7 11:23:19 | 显示全部楼层 |阅读模式


◎译  名 异星危机/Anti-life/异种猎杀(台)
◎片  名 Breach
◎年  代 2020
◎产  地 加拿大
◎类  别 行动 / 科幻
◎语  言 英语
◎上映日期 2020-12-18(美国)
◎IMDb评分  3.7/10 from 6093 users
◎IMDb链接  https://www.imdb.com/title/tt9820556/
◎豆瓣评分 3.4/10 from 764 users
◎豆瓣链接 https://movie.douban.com/subject/34865491/
◎片  长 92分钟
◎导  演 约翰·修茨 John Suits
◎编  剧 科里·拉奇 Corey Large / 爱德华·德雷克 Edward Drake
◎主  演 科迪·基尔斯利 Cody Kearsley
       布鲁斯·威利斯 Bruce Willis
       瑞秋·尼科尔斯 Rachel Nichols
       约翰尼·梅辛纳 Johnny Messner
       科里·拉奇 Corey Large
       卡兰·马尔韦 Callan Mulvey
       蒂莫西·V·墨菲 Timothy V. Murphy
       乔翰·厄布 Johann Urb
       拉尔夫·莫勒 Ralf Moeller
       斯温·特梅尔 Swen Temmel
       托马斯·简 Thomas Jane
◎标  签 科幻 | 布鲁斯威利斯 | 2020 | 科幻片 | 行动 | 加拿大 | 惊悚 | 美国电影
◎简  介


  故事报告地球遭受扑灭性瘟疫,一艘星际方舟载着人类逃离,却遭到了新的威胁进犯——一种变形的外星气力出现要灭绝人类!
  1. Video
  2. ID                                       : 1
  3. ID in the original source medium         : 4113 (0x1011)
  4. Format                                   : AVC
  5. Format/Info                              : Advanced Video Codec
  6. Format profile                           : [email protected]
  7. Format settings                          : CABAC / 4 Ref Frames
  8. Format settings, CABAC                   : Yes
  9. Format settings, Reference frames        : 4 frames
  10. Format settings, GOP                     : M=3, N=12
  11. Codec ID                                 : V_MPEG4/ISO/AVC
  12. Duration                                 : 1 h 32 min
  13. Bit rate mode                            : Variable
  14. Bit rate                                 : 26.7 Mb/s
  15. Maximum bit rate                         : 38.0 Mb/s
  16. Width                                    : 1 920 pixels
  17. Height                                   : 1 080 pixels
  18. Display aspect ratio                     : 16:9
  19. Frame rate mode                          : Constant
  20. Frame rate                               : 23.976 (24000/1001/189150) FPS
  21. Color space                              : YUV
  22. Chroma subsampling                       : 4:2:0
  23. Bit depth                                : 8 bits
  24. Scan type                                : Progressive
  25. Bits/(Pixel*Frame)                       : 0.538
  26. Stream size                              : 17.3 GiB (87%)
  27. Language                                 : English
  28. Default                                  : No
  29. Forced                                   : No
  30. Original source medium                   : Blu-ray
  31. Audio
  32. ID                                       : 2
  33. ID in the original source medium         : 4352 (0x1100)
  34. Format                                   : DTS XLL
  35. Format/Info                              : Digital Theater Systems
  36. Commercial name                          : DTS-HD Master Audio
  37. Codec ID                                 : A_DTS
  38. Duration                                 : 1 h 32 min
  39. Bit rate mode                            : Variable
  40. Bit rate                                 : 3 773 kb/s
  41. Channel(s)                               : 6 channels
  42. Channel layout                           : C L R Ls Rs LFE
  43. Sampling rate                            : 48.0 kHz
  44. Frame rate                               : 93.750 FPS (512 SPF)
  45. Bit depth                                : 24 bits
  46. Compression mode                         : Lossless
  47. Stream size                              : 2.44 GiB (12%)
  48. Title                                    : DTS-HD MA 5.1
  49. Language                                 : English
  50. Default                                  : Yes
  51. Forced                                   : No
  52. Original source medium                   : Blu-ray
  53. Text #1
  54. ID                                       : 3
  55. Format                                   : UTF-8
  56. Codec ID                                 : S_TEXT/UTF8
  57. Codec ID/Info                            : UTF-8 Plain Text
  58. Duration                                 : 1 h 28 min
  59. Bit rate                                 : 41 b/s
  60. Count of elements                        : 959
  61. Stream size                              : 27.1 KiB (0%)
  62. Title                                    : English-SRT
  63. Language                                 : English
  64. Default                                  : Yes
  65. Forced                                   : No
  66. Text #2
  67. ID                                       : 4
  68. ID in the original source medium         : 4608 (0x1200)
  69. Format                                   : PGS
  70. Muxing mode                              : zlib
  71. Codec ID                                 : S_HDMV/PGS
  72. Codec ID/Info                            : Picture based subtitle format used on BDs/HD-DVDs
  73. Duration                                 : 1 h 28 min
  74. Bit rate                                 : 29.6 kb/s
  75. Count of elements                        : 1922
  76. Stream size                              : 18.7 MiB (0%)
  77. Title                                    : English-PGS
  78. Language                                 : English
  79. Default                                  : No
  80. Forced                                   : No
  81. Original source medium                   : Blu-ray
  82. Text #3
  83. ID                                       : 5
  84. ID in the original source medium         : 4609 (0x1201)
  85. Format                                   : PGS
  86. Muxing mode                              : zlib
  87. Codec ID                                 : S_HDMV/PGS
  88. Codec ID/Info                            : Picture based subtitle format used on BDs/HD-DVDs
  89. Duration                                 : 1 h 28 min
  90. Bit rate                                 : 37.0 kb/s
  91. Count of elements                        : 2633
  92. Stream size                              : 23.5 MiB (0%)
  93. Title                                    : English-SDH-PGS
  94. Language                                 : English
  95. Default                                  : No
  96. Forced                                   : No
  97. Original source medium                   : Blu-ray
  98. Text #4
  99. ID                                       : 6
  100. ID in the original source medium         : 4610 (0x1202)
  101. Format                                   : PGS
  102. Muxing mode                              : zlib
  103. Codec ID                                 : S_HDMV/PGS
  104. Codec ID/Info                            : Picture based subtitle format used on BDs/HD-DVDs
  105. Duration                                 : 1 h 31 min
  106. Bit rate                                 : 26.7 kb/s
  107. Count of elements                        : 1884
  108. Stream size                              : 17.5 MiB (0%)
  109. Title                                    : Spanish-PGS
  110. Language                                 : Spanish
  111. Default                                  : No
  112. Forced                                   : No
  113. Original source medium                   : Blu-ray
  114. Text #5
  115. ID                                       : 7
  116. ID in the original source medium         : 4611 (0x1203)
  117. Format                                   : PGS
  118. Muxing mode                              : zlib
  119. Codec ID                                 : S_HDMV/PGS
  120. Codec ID/Info                            : Picture based subtitle format used on BDs/HD-DVDs
  121. Duration                                 : 1 h 31 min
  122. Bit rate                                 : 30.4 kb/s
  123. Count of elements                        : 1940
  124. Stream size                              : 19.8 MiB (0%)
  125. Title                                    : French-PGS
  126. Language                                 : French
  127. Default                                  : No
  128. Forced                                   : No
  129. Original source medium                   : Blu-ray
  130. Menu
  131. 00:00:00.000                             : en:Chapter 01
  132. 00:06:54.705                             : en:Chapter 02
  133. 00:14:34.540                             : en:Chapter 03
  134. 00:23:01.755                             : en:Chapter 04
  135. 00:31:59.834                             : en:Chapter 05
  136. 00:41:24.940                             : en:Chapter 06
  137. 00:50:50.797                             : en:Chapter 07
  138. 00:57:12.929                             : en:Chapter 08
  139. 01:04:05.842                             : en:Chapter 09
  140. 01:12:14.580                             : en:Chapter 10
  141. 01:21:35.891                             : en:Chapter 11
  142. 01:29:31.366                             : en:Chapter 12
复制代码






                                       
                                       

                                       
                                       
                                       




回复

使用道具 举报

懒得打字嘛,点击右侧快捷回复 【右侧内容,后台自定义】
您需要登录后才可以回帖 登录 | 立即加入

本版积分规则

Archiver|小黑屋| 蓝光电影网 |网站地图

Copyright © 2021 Comsenz Inc. Powered by 蓝光电影网

蓝光电影网

本站内容由用户自主分享和转载自互联网,转载目的在于传递更多信息,并不代表本网赞同其观点和对其真实性负责。

如有侵权、违反国家法律政策行为,请联系我们,我们会第一时间及时清除和处理!

举报反馈邮箱:[email protected]

快速回复 返回顶部 返回列表