找回密码

蓝光电影网

查看: 20|回复: 1

[动作] 雷神 Thor.2011.REMASTERED.1080p.BluRay.x264.TrueHD.7.1.Atmos-SWTYBLZ 16.34GB

[复制链接]
蓝光币
515
发表于 2019-8-11 03:10:01 | 显示全部楼层 |阅读模式
[img]https://img1.doubanio.com/view/photo/l_ratio_poster/public/p2159068249.jpg[img]
◎译  名 雷神 / The Mighty Thor / 托尔 / 雷神之锤 / 雷奇异侠(港) / 雷神归来 / 雷神托尔 / 雷神索尔(台)
◎片  名 Thor
◎年  代 2011
◎产  地 美国
◎类  别 行动 / 奇异 / 冒险
◎语  言 英语
◎上映日期 2011-05-06(美国) / 2011-05-08(中国大陆)
◎IMDb评分  7.0/10 from 691648 users
◎IMDb链接  http://www.imdb.com/title/tt0800369
◎豆瓣评分 7.0/10 from 241891 users
◎豆瓣链接 https://movie.douban.com/subject/1866471/
◎片  长 115分钟
◎导  演 肯尼思·布拉纳 Kenneth Branagh
◎编  剧 阿什利·米勒 Ashley Miller / 扎克·施坦茨 Zack Stentz / 唐·佩恩 Don Payne / J·迈克尔·斯特拉辛斯基 J. Michael Straczynski / 马克·波托塞维奇 Mark Protosevich / 斯坦·李 Stan Lee / 拉里·利伯 Larry Lieber / 杰克·科比 Jack Kirby
◎主  演 克里斯·海姆斯沃斯 Chris Hemsworth
       娜塔莉·波特曼 Natalie Portman
       汤姆·希德勒斯顿 Tom Hiddleston
       安东尼·霍普金斯 Anthony Hopkins
       斯特兰·斯卡斯加德 Stellan Skarsg?rd
       凯特·戴琳斯 Kat Dennings
       克拉克·格雷格 Clark Gregg
       科鲁姆·费奥瑞 Colm Feore
       伊德里斯·艾尔巴 Idris Elba
       雷·史蒂文森 Ray Stevenson
       浅野忠信 Tadanobu Asano
       乔希·达拉斯 Josh Dallas
       杰米·亚历山大 Jaimie Alexander
       蕾妮·罗素 Rene Russo
       艾德里安娜·巴拉扎 Adriana Barraza
       马克斯米利亚诺·赫尔南德斯 Maximiliano Hernández
       杰瑞米·雷纳 Jeremy Renner
       塞缪尔·杰克逊 Samuel L. Jackson
       达科塔·高尤 Dakota Goyo
       泰德·沃普莱斯 ted allpress
       斯坦·李 Stan Lee

◎标  签 美国 | 科幻 | 漫画改编 | 漫威 | 行动 | 神话 | 2011 | 奇异
◎简  介  
  勇敢善战雷神托尔(克里斯?海姆斯沃斯 Chris Hemsworth 饰),作为永久境界阿斯加德的王位继续人,受人敬佩。但是由于一次冒失的行动,几乎挑起一场陈腐的战争,是以被父亲天神奥丁(安东尼?霍普金斯 Anthony Hopkins 饰)放逐到人世。托尔在人世熟悉了 美丽的女科学家珍?福斯特(娜塔莉?波特曼 Natalie Portman 饰)和她的工作伙伴,在他们的帮助下,托尔找到了和自己一路被贬的雷神之锤,但此时的雷神之锤并不属于他。其间,托尔的弟弟洛基为了成为阿斯加德的王,居然结合寒冰伟人,诡计在永久境界掀起一场腥风血雨。为了保持永久之界的法式,托尔的四位朋友也来到人世,他们决议带托尔返回永久之境。此时,为了阻止雷神重归永久境界,洛基派出伟人杀死托尔。损失才能和法战的托尔为了庇护无辜的人类与自己的朋友,献出了自己的生命。托尔的死打破了天神的的咒语,托尔新生并重获雷神之力克服伟人。此时,天神生命危在旦夕,托尔必须与自己的朋友们重返永久之界,保护那边的法式……
  本片改编自传奇漫画家同伴斯坦?李(Stan Lee)和杰克?科比(Jack Kirby)于1962年推出《雷神》连载漫画。
◎获奖情况  
  第21届MTV电影奖(2012)
  MTV电影奖 最好豪杰形象(提名) 克里斯·海姆斯沃斯
  第13届美国青少年挑选奖(2011)
  Choice Movie Breakout: Male(提名) 克里斯·海姆斯沃斯
  1. Video
  2. ID                                       : 1
  3. Format                                   : AVC
  4. Format/Info                              : Advanced Video Codec
  5. Format profile                           : [email protected]
  6. Format settings                          : CABAC / 5 Ref Frames
  7. Format settings, CABAC                   : Yes
  8. Format settings, Reference frames        : 5 frames
  9. Codec ID                                 : V_MPEG4/ISO/AVC
  10. Duration                                 : 1 h 54 min
  11. Bit rate                                 : 14.6 Mb/s
  12. Width                                    : 1 920 pixels
  13. Height                                   : 816 pixels
  14. Display aspect ratio                     : 2.35:1
  15. Frame rate mode                          : Constant
  16. Frame rate                               : 23.976 (24000/1001) FPS
  17. Color space                              : YUV
  18. Chroma subsampling                       : 4:2:0
  19. Bit depth                                : 8 bits
  20. Scan type                                : Progressive
  21. Bits/(Pixel*Frame)                       : 0.389
  22. Stream size                              : 11.7 GiB (72%)
  23. Title                                    : Thor.2011.REMASTERED.1080p.BluRay.x264.TrueHD.7.1.Atmos-SWTYBLZ
  24. Writing library                          : x264 core 157 r2935 545de2f
  25. Encoding settings                        : cabac=1 / ref=5 / deblock=1:-1:-1 / analyse=0x3:0x133 / me=umh / subme=10 / psy=1 / psy_rd=1.00:0.15 / mixed_ref=1 / me_range=48 / chroma_me=1 / trellis=2 / 8x8dct=1 / cqm=0 / deadzone=21,11 / fast_pskip=1 / chroma_qp_offset=-3 / threads=25 / lookahead_threads=4 / sliced_threads=0 / nr=0 / decimate=0 / interlaced=0 / bluray_compat=0 / constrained_intra=0 / bframes=8 / b_pyramid=2 / b_adapt=2 / b_bias=0 / direct=3 / weightb=1 / open_gop=0 / weightp=2 / keyint=250 / keyint_min=23 / scenecut=40 / intra_refresh=0 / rc_lookahead=60 / rc=crf / mbtree=1 / crf=13.0 / qcomp=0.60 / qpmin=0 / qpmax=69 / qpstep=4 / ip_ratio=1.40 / aq=1:1.00
  26. Default                                  : Yes
  27. Forced                                   : No
  28. Audio #1
  29. ID                                       : 2
  30. Format                                   : MLP FBA 16-ch
  31. Format/Info                              : Meridian Lossless Packing FBA with 16-channel presentation
  32. Commercial name                          : Dolby TrueHD with Dolby Atmos
  33. Codec ID                                 : A_TRUEHD
  34. Duration                                 : 1 h 54 min
  35. Bit rate mode                            : Variable
  36. Bit rate                                 : 4 938 kb/s
  37. Maximum bit rate                         : 8 058 kb/s
  38. Channel(s)                               : 8 channels
  39. Channel layout                           : L R C LFE Ls Rs Lb Rb
  40. Sampling rate                            : 48.0 kHz
  41. Frame rate                               : 1 200.000 FPS (40 SPF)
  42. Compression mode                         : Lossless
  43. Stream size                              : 3.96 GiB (24%)
  44. Title                                    : Thor.2011.REMASTERED.1080p.BluRay.x264.TrueHD.7.1.Atmos-SWTYBLZ
  45. Language                                 : English
  46. Default                                  : Yes
  47. Forced                                   : No
  48. Number of dynamic objects                : 13
  49. Bed channel count                        : 1 channel
  50. Bed channel configuration                : LFE
  51. Audio #2
  52. ID                                       : 3
  53. Format                                   : AC-3
  54. Format/Info                              : Audio Coding 3
  55. Commercial name                          : Dolby Digital
  56. Codec ID                                 : A_AC3
  57. Duration                                 : 1 h 54 min
  58. Bit rate mode                            : Constant
  59. Bit rate                                 : 640 kb/s
  60. Channel(s)                               : 6 channels
  61. Channel layout                           : L R C LFE Ls Rs
  62. Sampling rate                            : 48.0 kHz
  63. Frame rate                               : 31.250 FPS (1536 SPF)
  64. Bit depth                                : 16 bits
  65. Compression mode                         : Lossy
  66. Stream size                              : 526 MiB (3%)
  67. Title                                    : Thor.2011.REMASTERED.1080p.BluRay.x264.TrueHD.7.1.Atmos-SWTYBLZ
  68. Language                                 : English
  69. Service kind                             : Complete Main
  70. Default                                  : No
  71. Forced                                   : No
  72. Text #1
  73. ID                                       : 4
  74. Format                                   : UTF-8
  75. Codec ID                                 : S_TEXT/UTF8
  76. Codec ID/Info                            : UTF-8 Plain Text
  77. Duration                                 : 1 h 53 min
  78. Bit rate                                 : 39 b/s
  79. Count of elements                        : 1095
  80. Stream size                              : 33.1 KiB (0%)
  81. Title                                    : English-SRT
  82. Language                                 : English
  83. Default                                  : Yes
  84. Forced                                   : No
  85. Text #2
  86. ID                                       : 5
  87. Format                                   : PGS
  88. Muxing mode                              : zlib
  89. Codec ID                                 : S_HDMV/PGS
  90. Codec ID/Info                            : Picture based subtitle format used on BDs/HD-DVDs
  91. Duration                                 : 1 h 53 min
  92. Bit rate                                 : 32.3 kb/s
  93. Count of elements                        : 2416
  94. Stream size                              : 26.3 MiB (0%)
  95. Title                                    : English-PGS
  96. Language                                 : English
  97. Default                                  : No
  98. Forced                                   : No
  99. Text #3
  100. ID                                       : 6
  101. Format                                   : PGS
  102. Muxing mode                              : zlib
  103. Codec ID                                 : S_HDMV/PGS
  104. Codec ID/Info                            : Picture based subtitle format used on BDs/HD-DVDs
  105. Duration                                 : 1 h 53 min
  106. Bit rate                                 : 27.0 kb/s
  107. Count of elements                        : 2214
  108. Stream size                              : 22.0 MiB (0%)
  109. Title                                    : French-PGS
  110. Language                                 : French
  111. Default                                  : No
  112. Forced                                   : No
  113. Text #4
  114. ID                                       : 7
  115. Format                                   : PGS
  116. Muxing mode                              : zlib
  117. Codec ID                                 : S_HDMV/PGS
  118. Codec ID/Info                            : Picture based subtitle format used on BDs/HD-DVDs
  119. Duration                                 : 1 h 53 min
  120. Bit rate                                 : 24.8 kb/s
  121. Count of elements                        : 2084
  122. Stream size                              : 20.2 MiB (0%)
  123. Title                                    : French-PGS
  124. Language                                 : French
  125. Default                                  : No
  126. Forced                                   : No
  127. Text #5
  128. ID                                       : 8
  129. Format                                   : PGS
  130. Muxing mode                              : zlib
  131. Codec ID                                 : S_HDMV/PGS
  132. Codec ID/Info                            : Picture based subtitle format used on BDs/HD-DVDs
  133. Duration                                 : 1 h 53 min
  134. Bit rate                                 : 32.8 kb/s
  135. Count of elements                        : 2214
  136. Stream size                              : 26.5 MiB (0%)
  137. Title                                    : German-PGS
  138. Language                                 : German
  139. Default                                  : No
  140. Forced                                   : No
  141. Text #6
  142. ID                                       : 9
  143. Format                                   : PGS
  144. Muxing mode                              : zlib
  145. Codec ID                                 : S_HDMV/PGS
  146. Codec ID/Info                            : Picture based subtitle format used on BDs/HD-DVDs
  147. Duration                                 : 1 h 53 min
  148. Bit rate                                 : 28.4 kb/s
  149. Count of elements                        : 2094
  150. Stream size                              : 23.0 MiB (0%)
  151. Title                                    : Italian-PGS
  152. Language                                 : Italian
  153. Default                                  : No
  154. Forced                                   : No
  155. Text #7
  156. ID                                       : 10
  157. Format                                   : PGS
  158. Muxing mode                              : zlib
  159. Codec ID                                 : S_HDMV/PGS
  160. Codec ID/Info                            : Picture based subtitle format used on BDs/HD-DVDs
  161. Duration                                 : 1 h 53 min
  162. Bit rate                                 : 19.1 kb/s
  163. Count of elements                        : 2119
  164. Stream size                              : 15.5 MiB (0%)
  165. Title                                    : Japanese-PGS
  166. Language                                 : Japanese
  167. Default                                  : No
  168. Forced                                   : No
  169. Text #8
  170. ID                                       : 11
  171. Format                                   : PGS
  172. Muxing mode                              : zlib
  173. Codec ID                                 : S_HDMV/PGS
  174. Codec ID/Info                            : Picture based subtitle format used on BDs/HD-DVDs
  175. Duration                                 : 1 h 53 min
  176. Bit rate                                 : 24.9 kb/s
  177. Count of elements                        : 2108
  178. Stream size                              : 20.2 MiB (0%)
  179. Title                                    : Norwegian-PGS
  180. Language                                 : Norwegian
  181. Default                                  : No
  182. Forced                                   : No
  183. Text #9
  184. ID                                       : 12
  185. Format                                   : PGS
  186. Muxing mode                              : zlib
  187. Codec ID                                 : S_HDMV/PGS
  188. Codec ID/Info                            : Picture based subtitle format used on BDs/HD-DVDs
  189. Duration                                 : 1 h 53 min
  190. Bit rate                                 : 24.1 kb/s
  191. Count of elements                        : 2118
  192. Stream size                              : 19.7 MiB (0%)
  193. Title                                    : Spanish-PGS
  194. Language                                 : Spanish
  195. Default                                  : No
  196. Forced                                   : No
  197. Text #10
  198. ID                                       : 13
  199. Format                                   : PGS
  200. Muxing mode                              : zlib
  201. Codec ID                                 : S_HDMV/PGS
  202. Codec ID/Info                            : Picture based subtitle format used on BDs/HD-DVDs
  203. Duration                                 : 1 h 53 min
  204. Bit rate                                 : 28.1 kb/s
  205. Count of elements                        : 2118
  206. Stream size                              : 22.7 MiB (0%)
  207. Title                                    : Swedish-PGS
  208. Language                                 : Swedish
  209. Default                                  : No
  210. Forced                                   : No
  211. Menu
  212. 00:00:00.000                             : en:Chapter 01
  213. 00:10:37.637                             : en:Chapter 02
  214. 00:17:32.635                             : en:Chapter 03
  215. 00:26:02.102                             : en:Chapter 04
  216. 00:32:27.696                             : en:Chapter 05
  217. 00:37:27.912                             : en:Chapter 06
  218. 00:42:13.698                             : en:Chapter 07
  219. 00:52:09.877                             : en:Chapter 08
  220. 01:01:24.472                             : en:Chapter 09
  221. 01:08:45.038                             : en:Chapter 10
  222. 01:15:38.659                             : en:Chapter 11
  223. 01:21:18.749                             : en:Chapter 12
  224. 01:30:34.846                             : en:Chapter 13
  225. 01:40:57.677                             : en:Chapter 14
  226. 01:45:13.224                             : en:Chapter 15
  227. 01:53:05.696                             : en:Chapter 16
复制代码






                                       
                                       

                                       
                                       
                                       




回复

使用道具 举报

蓝光币
15
发表于 2021-10-6 20:00:15 | 显示全部楼层
谢谢分享,希望能下
回复 支持 反对

使用道具 举报

懒得打字嘛,点击右侧快捷回复 【右侧内容,后台自定义】
您需要登录后才可以回帖 登录 | 立即加入

本版积分规则

Archiver|小黑屋| 蓝光电影网 |网站地图

Copyright © 2021 Comsenz Inc. Powered by 蓝光电影网

蓝光电影网

本站内容由用户自主分享和转载自互联网,转载目的在于传递更多信息,并不代表本网赞同其观点和对其真实性负责。

如有侵权、违反国家法律政策行为,请联系我们,我们会第一时间及时清除和处理!

举报反馈邮箱:[email protected]

快速回复 返回顶部 返回列表