找回密码

蓝光电影网

查看: 22|回复: 0

[喜剧] 誓言/人人都要效忠总统 The.Oath.2018.1080p.BluRay.REMUX.AVC.DD5.1-FGT 13.37GB

[复制链接]
蓝光币
515
发表于 2019-6-26 21:56:29 | 显示全部楼层 |阅读模式


◎译  名 誓词 / 大家都要效忠总统(台)
◎片  名 The Oath
◎年  代 2018
◎产  地 美国
◎类  别 笑剧 / 惊悚
◎语  言 英语
◎上映日期 2018-10-12(美国)
◎IMDb评分  5.3/10 from 2618 users
◎IMDb链接  http://www.imdb.com/title/tt7461200
◎豆瓣评分 6.2/10 from 97 users
◎豆瓣链接 https://movie.douban.com/subject/27605033/
◎片  长 93分钟
◎导  演 伊克·巴里霍尔兹 Ike Barinholtz
◎编  剧 伊克·巴里霍尔兹 Ike Barinholtz
◎主  演 伊克·巴里霍尔兹 Ike Barinholtz
      蒂凡尼·哈迪斯 Tiffany Haddish
      诺拉·邓恩 Nora Dunn
      克里斯·埃里斯 Chris Ellis
      梅瑞迪斯·海格纳 Meredith Hagner
      凯瑞·布朗斯汀 Carrie Brownstein
      杰伊·杜普拉斯 Jay Duplass
      比利·马格努森 Billy Magnussen
      约翰·赵 John Cho
      普莉雅·弗格森 Priah Ferguson
      马克思·格林菲尔德 Max Greenfield
      凯文·拉姆 Kevin Rahm
      Josh Meyers
      贝丝·杜瓦 Beth Dover
      约翰·杜西 John Ducey
      理查德·赫德 Richard Herd
      Patricia Herd
      Brett Lapeyrouse
      布鲁斯·巴克林纳 Bruce Boxleitner
      马特·科博伊 Matt Corboy
      Joe Canale

◎标  签 美国 | 笑剧 | 2018 | 黑色诙谐 | 电影 | 剧情 | 黑幽 | 美国电影
◎简  介  
  蒂凡尼·哈迪斯、约翰·赵加盟伊克·巴里霍尔兹(《明迪烦事多》《乌龙奸细》)执导嘲讽惊悚新片《誓词》(The Oath),本周开拍。巴里霍尔兹操刀剧本,报告生活在政治动乱的美国的百姓必须宣誓效忠,一个汉子在不会破坏家庭的情况下度过戴德节。凯瑞·布朗斯腾、比利·马格努森、梅瑞迪斯·海格纳、约翰·巴里霍尔兹、诺拉·邓恩、克里斯·埃利斯也参演,哈迪斯同时担任履行制片。
  1. Video
  2. ID                                       : 1
  3. Format                                   : AVC
  4. Format/Info                              : Advanced Video Codec
  5. Format profile                           : [email protected]
  6. Format settings                          : CABAC / 4 Ref Frames
  7. Format settings, CABAC                   : Yes
  8. Format settings, ReFrames                : 4 frames
  9. Format settings, GOP                     : M=3, N=24
  10. Codec ID                                 : V_MPEG4/ISO/AVC
  11. Duration                                 : 1 h 33 min
  12. Bit rate mode                            : Variable
  13. Bit rate                                 : 20.0 Mb/s
  14. Maximum bit rate                         : 35.0 Mb/s
  15. Width                                    : 1 920 pixels
  16. Height                                   : 1 080 pixels
  17. Display aspect ratio                     : 16:9
  18. Frame rate mode                          : Constant
  19. Frame rate                               : 23.976 (24000/1001) FPS
  20. Standard                                 : NTSC
  21. Color space                              : YUV
  22. Chroma subsampling                       : 4:2:0
  23. Bit depth                                : 8 bits
  24. Scan type                                : Progressive
  25. Bits/(Pixel*Frame)                       : 0.402
  26. Stream size                              : 13.0 GiB (97%)
  27. Title                                    : The.Oath.2018.1080p.BluRay.REMUX.AVC.DD5.1-FGT
  28. Language                                 : English
  29. Default                                  : No
  30. Forced                                   : No
  31. Color range                              : Limited
  32. Color primaries                          : BT.709
  33. Transfer characteristics                 : BT.709
  34. Matrix coefficients                      : BT.709
  35. Audio
  36. ID                                       : 2
  37. Format                                   : AC-3
  38. Format/Info                              : Audio Coding 3
  39. Commercial name                          : Dolby Digital
  40. Codec ID                                 : A_AC3
  41. Duration                                 : 1 h 33 min
  42. Bit rate mode                            : Constant
  43. Bit rate                                 : 448 kb/s
  44. Channel(s)                               : 6 channels
  45. Channel layout                           : L R C LFE Ls Rs
  46. Sampling rate                            : 48.0 kHz
  47. Frame rate                               : 31.250 FPS (1536 SPF)
  48. Bit depth                                : 16 bits
  49. Compression mode                         : Lossy
  50. Stream size                              : 299 MiB (2%)
  51. Title                                    : The.Oath.2018.1080p.BluRay.REMUX.AVC.DD5.1-FGT
  52. Language                                 : English
  53. Service kind                             : Complete Main
  54. Default                                  : Yes
  55. Forced                                   : No
  56. Text #1
  57. ID                                       : 3
  58. Format                                   : PGS
  59. Muxing mode                              : zlib
  60. Codec ID                                 : S_HDMV/PGS
  61. Codec ID/Info                            : Picture based subtitle format used on BDs/HD-DVDs
  62. Duration                                 : 1 h 28 min
  63. Bit rate                                 : 74.8 kb/s
  64. Count of elements                        : 4188
  65. Stream size                              : 47.2 MiB (0%)
  66. Title                                    : English-PGS
  67. Language                                 : English
  68. Default                                  : Yes
  69. Forced                                   : No
  70. Text #2
  71. ID                                       : 4
  72. Format                                   : PGS
  73. Muxing mode                              : zlib
  74. Codec ID                                 : S_HDMV/PGS
  75. Codec ID/Info                            : Picture based subtitle format used on BDs/HD-DVDs
  76. Duration                                 : 1 h 29 min
  77. Bit rate                                 : 60.2 kb/s
  78. Count of elements                        : 3834
  79. Stream size                              : 38.6 MiB (0%)
  80. Title                                    : Spanish-PGS
  81. Language                                 : Spanish
  82. Default                                  : No
  83. Forced                                   : No
  84. Menu
  85. 00:00:00.000                             : en:Chapter 01
  86. 00:05:56.022                             : en:Chapter 02
  87. 00:11:26.394                             : en:Chapter 03
  88. 00:21:48.307                             : en:Chapter 04
  89. 00:29:32.562                             : en:Chapter 05
  90. 00:40:29.427                             : en:Chapter 06
  91. 00:47:51.952                             : en:Chapter 07
  92. 00:55:52.098                             : en:Chapter 08
  93. 01:05:53.908                             : en:Chapter 09
  94. 01:13:23.148                             : en:Chapter 10
  95. 01:21:19.791                             : en:Chapter 11
  96. 01:29:37.288                             : en:Chapter 12
  97. 01:33:20.595                             : en:Chapter 13
复制代码






                                       
                                       

                                       
                                       
                                       




回复

使用道具 举报

懒得打字嘛,点击右侧快捷回复 【右侧内容,后台自定义】
您需要登录后才可以回帖 登录 | 立即加入

本版积分规则

Archiver|小黑屋| 蓝光电影网 |网站地图

Copyright © 2021 Comsenz Inc. Powered by 蓝光电影网

蓝光电影网

本站内容由用户自主分享和转载自互联网,转载目的在于传递更多信息,并不代表本网赞同其观点和对其真实性负责。

如有侵权、违反国家法律政策行为,请联系我们,我们会第一时间及时清除和处理!

举报反馈邮箱:[email protected]

快速回复 返回顶部 返回列表