找回密码

蓝光电影网

查看: 25|回复: 0

[喜剧] 朝三暮四 Fast.and.Loose.1930.1080p.BluRay.x264.DTS-FGT 6.45GB

[复制链接]
蓝光币
733
发表于 2020-11-25 08:52:02 | 显示全部楼层 |阅读模式


◎译  名 朝三暮四
◎片  名 Fast and Loose
◎年  代 1930
◎产  地 美国
◎类  别 笑剧 / 恋爱
◎语  言 英语
◎上映日期 1930-11-08
◎IMDb评分  6.3/10 from 138 users
◎IMDb链接  https://www.imdb.com/title/tt0020873/
◎豆瓣评分 /10 from 0 users
◎豆瓣链接 https://movie.douban.com/subject/3778645/
◎片  长 70 分钟
◎导  演 弗雷德·C·纽迈尔 Fred C. Newmeyer
◎编  剧 朵丽丝·安德森 Doris Anderson / 杰克·柯克兰 Jack Kirkland / 埃弗里·霍普伍德 Avery Hopwood / 普莱斯顿·斯特奇斯 Preston Sturges
◎主  演 Herschel Mayall
       弗兰克·摩根 Frank Morgan
       查尔斯·斯塔莱特 Charles Starrett
       亨利·沃兹沃思 Henry Wadsworth
       爱德华·基恩 Edward Keane
       大卫·哈奇森 David Hutcheson
       Winifred Harris
       露卡·切思 Ilka Chase
       柯克·阿林 Kirk Alyn
       卡洛·朗白 Carole Lombard
       米利亚姆·霍普金斯 Miriam Hopkins
       Herbert Yost
◎标  签 美国 | Pre-Code | Miriam_Hopkins | CaroleLombard | 1930s | 美國 | FredCNewmeyer
◎简  介


  暂无相关剧情先容
  1. Video
  2. ID                                       : 1
  3. Format                                   : AVC
  4. Format/Info                              : Advanced Video Codec
  5. Format profile                           : [email protected]
  6. Format settings                          : CABAC / 4 Ref Frames
  7. Format settings, CABAC                   : Yes
  8. Format settings, Reference frames        : 4 frames
  9. Codec ID                                 : V_MPEG4/ISO/AVC
  10. Duration                                 : 1 h 11 min
  11. Bit rate                                 : 11.5 Mb/s
  12. Width                                    : 1 440 pixels
  13. Height                                   : 1 080 pixels
  14. Display aspect ratio                     : 4:3
  15. Frame rate mode                          : Constant
  16. Frame rate                               : 23.976 (24000/1001/189150) FPS
  17. Color space                              : YUV
  18. Chroma subsampling                       : 4:2:0
  19. Bit depth                                : 8 bits
  20. Scan type                                : Progressive
  21. Bits/(Pixel*Frame)                       : 0.308
  22. Stream size                              : 5.70 GiB (88%)
  23. Title                                    : Fast.and.Loose.1930.1080p.BluRay.x264.DTS-FGT
  24. Writing library                          : x264 core 148 r2748 97eaef2
  25. Encoding settings                        : cabac=1 / ref=4 / deblock=1:-2:-2 / analyse=0x3:0x113 / me=umh / subme=9 / psy=1 / psy_rd=1.00:0.15 / mixed_ref=1 / me_range=16 / chroma_me=1 / trellis=2 / 8x8dct=1 / cqm=0 / deadzone=21,11 / fast_pskip=1 / chroma_qp_offset=-3 / threads=24 / lookahead_threads=3 / sliced_threads=0 / nr=0 / decimate=1 / interlaced=0 / bluray_compat=0 / constrained_intra=0 / bframes=3 / b_pyramid=2 / b_adapt=1 / b_bias=0 / direct=3 / weightb=1 / open_gop=0 / weightp=2 / keyint=250 / keyint_min=25 / scenecut=40 / intra_refresh=0 / rc_lookahead=50 / rc=2pass / mbtree=1 / bitrate=11500 / ratetol=1.0 / qcomp=0.60 / qpmin=0 / qpmax=69 / qpstep=4 / cplxblur=20.0 / qblur=0.5 / vbv_maxrate=31250 / vbv_bufsize=31250 / nal_hrd=none / filler=0 / ip_ratio=1.40 / aq=1:1.00
  26. Language                                 : English
  27. Default                                  : Yes
  28. Forced                                   : No
  29. Audio
  30. ID                                       : 2
  31. ID in the original source medium         : 4352 (0x1100)
  32. Format                                   : DTS
  33. Format/Info                              : Digital Theater Systems
  34. Codec ID                                 : A_DTS
  35. Duration                                 : 1 h 11 min
  36. Bit rate mode                            : Constant
  37. Bit rate                                 : 1 509 kb/s
  38. Channel(s)                               : 2 channels
  39. Channel layout                           : L R
  40. Sampling rate                            : 48.0 kHz
  41. Frame rate                               : 93.750 FPS (512 SPF)
  42. Bit depth                                : 16 bits
  43. Compression mode                         : Lossy
  44. Stream size                              : 766 MiB (12%)
  45. Title                                    : Fast.and.Loose.1930.1080p.BluRay.x264.DTS-FGT
  46. Language                                 : English
  47. Default                                  : No
  48. Forced                                   : No
  49. Original source medium                   : Blu-ray
  50. Text
  51. ID                                       : 3
  52. Format                                   : UTF-8
  53. Codec ID                                 : S_TEXT/UTF8
  54. Codec ID/Info                            : UTF-8 Plain Text
  55. Duration                                 : 1 h 9 min
  56. Bit rate                                 : 85 b/s
  57. Count of elements                        : 1193
  58. Stream size                              : 43.6 KiB (0%)
  59. Language                                 : English
  60. Default                                  : Yes
  61. Forced                                   : No
  62. Menu
  63. 00:00:00.000                             : en:Chapter 00
  64. 00:10:51.942                             : en:Chapter 01
  65. 00:17:59.870                             : en:Chapter 02
  66. 00:30:16.856                             : en:Chapter 03
  67. 00:40:20.960                             : en:Chapter 04
  68. 00:47:19.837                             : en:Chapter 05
  69. 00:54:58.044                             : en:Chapter 06
  70. 01:02:21.279                             : en:Chapter 07
复制代码






                                       
                                       

                                       
                                       
                                       




回复

使用道具 举报

懒得打字嘛,点击右侧快捷回复 【右侧内容,后台自定义】
您需要登录后才可以回帖 登录 | 立即加入

本版积分规则

Archiver|小黑屋| 蓝光电影网 |网站地图

Copyright © 2021 Comsenz Inc. Powered by 蓝光电影网

蓝光电影网

本站内容由用户自主分享和转载自互联网,转载目的在于传递更多信息,并不代表本网赞同其观点和对其真实性负责。

如有侵权、违反国家法律政策行为,请联系我们,我们会第一时间及时清除和处理!

举报反馈邮箱:[email protected]

快速回复 返回顶部 返回列表