找回密码

蓝光电影网

查看: 36|回复: 0

[喜剧] 鬼馬雙星 Games.Gamblers.Play.1974.CHINESE.1080p.BluRay.REMUX.AVC.DTS-HD.MA.7.1-FGT 19.01GB

[复制链接]
蓝光币
682
发表于 2019-6-26 21:36:25 | 显示全部楼层 |阅读模式


◎译  名 鬼马双星 / Games Gamblers Play
◎片  名 鬼馬雙星
◎年  代 1974
◎产  地 香港
◎类  别 笑剧
◎语  言 粤语
◎上映日期 1974-10-17
◎IMDb评分  6.7/10 from 155 users
◎IMDb链接  http://www.imdb.com/title/tt0071588
◎豆瓣评分 7.3/10 from 4294 users
◎豆瓣链接 https://movie.douban.com/subject/1301997/
◎片  长 107 分钟
◎导  演 许冠文 Michael Hui
◎编  剧 刘天赐 Tin-Chi Lau / 许冠文 Michael Hui / 邓伟雄 Weixiong Deng
◎主  演 许冠文 Michael Hui
      许冠杰 Samuel Hui
      许冠英 Ricky Hui
      吕有慧 Yau-wai Lui
      乔宏 Roy Chiao
      罗兰 Lan Law
      丁佩 Betty Ting Pei
      许绍雄 Siu-Hung Hui

◎标  签 香港 | 笑剧 | 许氏笑剧 | 1974 | 典范 | 黑色诙谐 | 搞笑 | 中国
◎简  介  
  这是香港70年月的典型武打搞笑片。老千邓国文(许冠文 饰)经常收支于牢狱,狱中无聊时,他经常会表演一些自己的千术以资同仓的监犯解闷。监犯刘豪杰(许冠杰 饰)对国文的千术非常佩服,希望出狱后能和他一路合作挣大钱。国文并没有答应,由于老千一般都独来独往。
两人出狱后,豪杰构造了一帮老千和国文对赌,国文经过一早买通在场的舞女佩佩将他们击败。豪杰加倍佩服国文,再次提出两人合作。国文抵不住他的死缠烂打,终究应承了。两人计划向城中恶霸年老全动手,为了筹集赌资,他们还加入了电视台的有奖游戏,国文凭仗聪明的脑筋顺遂的赢下了奖金。和年老全对赌的日子到了。
  1. Video
  2. ID                                       : 1
  3. Format                                   : AVC
  4. Format/Info                              : Advanced Video Codec
  5. Format profile                           : [email protected]
  6. Format settings                          : CABAC / 4 Ref Frames
  7. Format settings, CABAC                   : Yes
  8. Format settings, ReFrames                : 4 frames
  9. Format settings, GOP                     : M=3, N=24
  10. Codec ID                                 : V_MPEG4/ISO/AVC
  11. Duration                                 : 1 h 47 min
  12. Bit rate mode                            : Variable
  13. Bit rate                                 : 22.0 Mb/s
  14. Maximum bit rate                         : 28.0 Mb/s
  15. Width                                    : 1 920 pixels
  16. Height                                   : 1 080 pixels
  17. Display aspect ratio                     : 16:9
  18. Frame rate mode                          : Constant
  19. Frame rate                               : 23.976 (24000/1001) FPS
  20. Standard                                 : NTSC
  21. Color space                              : YUV
  22. Chroma subsampling                       : 4:2:0
  23. Bit depth                                : 8 bits
  24. Scan type                                : Progressive
  25. Bits/(Pixel*Frame)                       : 0.442
  26. Stream size                              : 16.5 GiB (87%)
  27. Title                                    : Games.Gamblers.Play.1974.CHINESE.1080p.BluRay.REMUX.AVC.DTS-HD.MA.7.1-FGT
  28. Language                                 : English
  29. Default                                  : No
  30. Forced                                   : No
  31. Color range                              : Limited
  32. Color primaries                          : BT.709
  33. Transfer characteristics                 : BT.709
  34. Matrix coefficients                      : BT.709
  35. Audio #1
  36. ID                                       : 2
  37. Format                                   : DTS XLL
  38. Format/Info                              : Digital Theater Systems
  39. Commercial name                          : DTS-HD Master Audio
  40. Codec ID                                 : A_DTS
  41. Duration                                 : 1 h 47 min
  42. Bit rate mode                            : Variable
  43. Bit rate                                 : 2 700 kb/s
  44. Channel(s)                               : 8 channels
  45. Channel layout                           : C L R LFE Lb Rb Lss Rss
  46. Sampling rate                            : 48.0 kHz
  47. Frame rate                               : 93.750 FPS (512 SPF)
  48. Bit depth                                : 16 bits
  49. Compression mode                         : Lossless
  50. Stream size                              : 2.02 GiB (11%)
  51. Title                                    : Games.Gamblers.Play.1974.CHINESE.1080p.BluRay.REMUX.AVC.DTS-HD.MA.7.1-FGT
  52. Language                                 : Chinese
  53. Default                                  : Yes
  54. Forced                                   : No
  55. Audio #2
  56. ID                                       : 3
  57. Format                                   : AC-3
  58. Format/Info                              : Audio Coding 3
  59. Commercial name                          : Dolby Digital
  60. Codec ID                                 : A_AC3
  61. Duration                                 : 1 h 47 min
  62. Bit rate mode                            : Constant
  63. Bit rate                                 : 640 kb/s
  64. Channel(s)                               : 6 channels
  65. Channel layout                           : L R C LFE Ls Rs
  66. Sampling rate                            : 48.0 kHz
  67. Frame rate                               : 31.250 FPS (1536 SPF)
  68. Bit depth                                : 16 bits
  69. Compression mode                         : Lossy
  70. Stream size                              : 491 MiB (3%)
  71. Title                                    : Games.Gamblers.Play.1974.CHINESE.1080p.BluRay.REMUX.AVC.DTS-HD.MA.7.1-FGT
  72. Language                                 : Chinese
  73. Service kind                             : Complete Main
  74. Default                                  : No
  75. Forced                                   : No
  76. Text #1
  77. ID                                       : 4
  78. Format                                   : PGS
  79. Muxing mode                              : zlib
  80. Codec ID                                 : S_HDMV/PGS
  81. Codec ID/Info                            : Picture based subtitle format used on BDs/HD-DVDs
  82. Duration                                 : 1 h 45 min
  83. Bit rate                                 : 26.0 kb/s
  84. Count of elements                        : 2438
  85. Stream size                              : 19.6 MiB (0%)
  86. Title                                    : English-PGS
  87. Language                                 : English
  88. Default                                  : Yes
  89. Forced                                   : Yes
  90. Text #2
  91. ID                                       : 5
  92. Format                                   : PGS
  93. Muxing mode                              : zlib
  94. Codec ID                                 : S_HDMV/PGS
  95. Codec ID/Info                            : Picture based subtitle format used on BDs/HD-DVDs
  96. Duration                                 : 1 h 45 min
  97. Bit rate                                 : 36.1 kb/s
  98. Count of elements                        : 2438
  99. Stream size                              : 27.3 MiB (0%)
  100. Title                                    : Chinese-PGS
  101. Language                                 : Chinese
  102. Default                                  : No
  103. Forced                                   : No
  104. Menu
  105. 00:00:00.000                             : en:Chapter 01
  106. 00:04:18.800                             : en:Chapter 02
  107. 00:10:09.942                             : en:Chapter 03
  108. 00:14:02.174                             : en:Chapter 04
  109. 00:20:48.956                             : en:Chapter 05
  110. 00:25:02.959                             : en:Chapter 06
  111. 00:29:06.244                             : en:Chapter 07
  112. 00:34:28.232                             : en:Chapter 08
  113. 00:39:34.789                             : en:Chapter 09
  114. 00:46:58.774                             : en:Chapter 10
  115. 00:54:22.050                             : en:Chapter 11
  116. 00:57:48.006                             : en:Chapter 12
  117. 01:02:35.668                             : en:Chapter 13
  118. 01:09:04.974                             : en:Chapter 14
  119. 01:11:38.210                             : en:Chapter 15
  120. 01:19:03.530                             : en:Chapter 16
  121. 01:24:34.360                             : en:Chapter 17
  122. 01:31:18.139                             : en:Chapter 18
  123. 01:36:22.693                             : en:Chapter 19
  124. 01:40:44.329                             : en:Chapter 20
复制代码






                                       
                                       

                                       
                                       
                                       




回复

使用道具 举报

懒得打字嘛,点击右侧快捷回复 【右侧内容,后台自定义】
您需要登录后才可以回帖 登录 | 立即加入

本版积分规则

Archiver|小黑屋| 蓝光电影网 |网站地图

Copyright © 2021 Comsenz Inc. Powered by 蓝光电影网

蓝光电影网

本站内容由用户自主分享和转载自互联网,转载目的在于传递更多信息,并不代表本网赞同其观点和对其真实性负责。

如有侵权、违反国家法律政策行为,请联系我们,我们会第一时间及时清除和处理!

举报反馈邮箱:[email protected]

快速回复 返回顶部 返回列表