找回密码

蓝光电影网

查看: 114|回复: 1

[动作] 夺金营救 Honest.Thief.2020.1080p.US.BluRay.REMUX.AVC.DTS-HD.MA.7.1-FGT 26.23GB

[复制链接]
蓝光币
511
发表于 2020-12-21 10:25:21 | 显示全部楼层 |阅读模式
[img][/img]

◎译  名 夺金救援/The Honest Thief/倒数还击(台)/末路狂盗(港)/老实的小偷
◎片  名 Honest Thief
◎年  代 2020
◎产  地 美国
◎类  别 行动 / 惊悚 / 犯罪
◎语  言 英语
◎上映日期 2020-09-03(丹麦) / 2020-10-16(美国)
◎IMDb评分  6/10 from 12667 users
◎IMDb链接  https://www.imdb.com/title/tt1838556/
◎豆瓣评分 5.7/10 from 2864 users
◎豆瓣链接 https://movie.douban.com/subject/30349249/
◎片  长 99分钟
◎导  演 马克·威廉姆斯 Mark Williams
◎编  剧 史蒂夫·奥尔里奇 Steve Allrich / 马克·威廉姆斯 Mark Williams
◎主  演 连姆·尼森 Liam Neeson
       凯特·沃什 Kate Walsh
       杰·科特尼 Jai Courtney
       杰弗里·多诺万 Jeffrey Donovan
       安东尼·拉莫斯 Anthony Ramos
       罗伯特·帕特里克 Robert Patrick
       塔兹 Tazzie
       何塞·冈斯·阿尔维斯 Jose Guns Alves
       珍妮尔·费格利 Janelle Feigley
       德文·迪普 Devon Diep
       杰米·加扎里安 Jamie Ghazarian
       帕蒂·奥尼尔 Patty O'Neil
       阿德里安·M·蒙波因特 Adrian M. Mompoint
       安东尼·拉莫斯 Anthony Ramos
       雅斯曼·塞斯·琼斯 Jasmine Cephas Jones
       玛塞拉·贾拉米洛 Marcela Jaramillo
◎标  签 行动 | 犯罪 | 美国 | 2020 | 剧情 | 悬疑 | 人性 | 电影
◎简  介


  连姆·尼森、凯特·沃什将主演新片[老实的小偷](The Honest Thief,暂译)。本片由马克·威廉姆斯执导,故事报告职业银行劫匪汤姆·卡特(尼森饰)碰到了他平生的挚爱安妮(沃尔什饰)。他之前在安妮工作的前台藏了700万美圆的赃物,现决议自首。当案件被交给一个奸滑的联邦观察局奸细时,一切都变得加倍危险和困难。
  1. Video
  2. ID                                       : 1
  3. ID in the original source medium         : 4113 (0x1011)
  4. Format                                   : AVC
  5. Format/Info                              : Advanced Video Codec
  6. Format profile                           : [email protected]
  7. Format settings                          : CABAC / 4 Ref Frames
  8. Format settings, CABAC                   : Yes
  9. Format settings, Reference frames        : 4 frames
  10. Codec ID                                 : V_MPEG4/ISO/AVC
  11. Duration                                 : 1 h 39 min
  12. Bit rate mode                            : Variable
  13. Bit rate                                 : 33.3 Mb/s
  14. Maximum bit rate                         : 38.0 Mb/s
  15. Width                                    : 1 920 pixels
  16. Height                                   : 1 080 pixels
  17. Display aspect ratio                     : 16:9
  18. Frame rate mode                          : Constant
  19. Frame rate                               : 23.976 (24000/1001/189150) FPS
  20. Color space                              : YUV
  21. Chroma subsampling                       : 4:2:0
  22. Bit depth                                : 8 bits
  23. Scan type                                : Progressive
  24. Bits/(Pixel*Frame)                       : 0.669
  25. Stream size                              : 23.1 GiB (88%)
  26. Language                                 : English
  27. Default                                  : No
  28. Forced                                   : No
  29. Original source medium                   : Blu-ray
  30. Audio #1
  31. ID                                       : 2
  32. ID in the original source medium         : 4352 (0x1100)
  33. Format                                   : DTS XLL
  34. Format/Info                              : Digital Theater Systems
  35. Commercial name                          : DTS-HD Master Audio
  36. Codec ID                                 : A_DTS
  37. Duration                                 : 1 h 39 min
  38. Bit rate mode                            : Variable
  39. Bit rate                                 : 4 289 kb/s
  40. Channel(s)                               : 8 channels
  41. Channel layout                           : C L R LFE Lb Rb Lss Rss
  42. Sampling rate                            : 48.0 kHz
  43. Frame rate                               : 93.750 FPS (512 SPF)
  44. Bit depth                                : 24 bits
  45. Compression mode                         : Lossless
  46. Stream size                              : 2.98 GiB (11%)
  47. Title                                    : DTS-HD MA 7.1
  48. Language                                 : English
  49. Default                                  : Yes
  50. Forced                                   : No
  51. Original source medium                   : Blu-ray
  52. Audio #2
  53. ID                                       : 3
  54. ID in the original source medium         : 4353 (0x1101)
  55. Format                                   : AC-3
  56. Format/Info                              : Audio Coding 3
  57. Commercial name                          : Dolby Digital
  58. Codec ID                                 : A_AC3
  59. Duration                                 : 1 h 39 min
  60. Bit rate mode                            : Constant
  61. Bit rate                                 : 192 kb/s
  62. Channel(s)                               : 2 channels
  63. Channel layout                           : L R
  64. Sampling rate                            : 48.0 kHz
  65. Frame rate                               : 31.250 FPS (1536 SPF)
  66. Compression mode                         : Lossy
  67. Stream size                              : 137 MiB (1%)
  68. Title                                    : DD 2.0
  69. Language                                 : English
  70. Service kind                             : Complete Main
  71. Default                                  : No
  72. Forced                                   : No
  73. Original source medium                   : Blu-ray
  74. Text #1
  75. ID                                       : 4
  76. Format                                   : UTF-8
  77. Codec ID                                 : S_TEXT/UTF8
  78. Codec ID/Info                            : UTF-8 Plain Text
  79. Duration                                 : 1 h 28 min
  80. Bit rate                                 : 53 b/s
  81. Count of elements                        : 1167
  82. Stream size                              : 34.7 KiB (0%)
  83. Title                                    : English-SRT
  84. Language                                 : English
  85. Default                                  : Yes
  86. Forced                                   : No
  87. Text #2
  88. ID                                       : 5
  89. ID in the original source medium         : 4608 (0x1200)
  90. Format                                   : PGS
  91. Muxing mode                              : zlib
  92. Codec ID                                 : S_HDMV/PGS
  93. Codec ID/Info                            : Picture based subtitle format used on BDs/HD-DVDs
  94. Duration                                 : 1 h 29 min
  95. Bit rate                                 : 40.5 kb/s
  96. Count of elements                        : 2714
  97. Stream size                              : 25.9 MiB (0%)
  98. Title                                    : English-PGS
  99. Language                                 : English
  100. Default                                  : No
  101. Forced                                   : No
  102. Original source medium                   : Blu-ray
  103. Text #3
  104. ID                                       : 6
  105. ID in the original source medium         : 4609 (0x1201)
  106. Format                                   : PGS
  107. Muxing mode                              : zlib
  108. Codec ID                                 : S_HDMV/PGS
  109. Codec ID/Info                            : Picture based subtitle format used on BDs/HD-DVDs
  110. Duration                                 : 1 h 37 min
  111. Bit rate                                 : 29.6 kb/s
  112. Count of elements                        : 2336
  113. Stream size                              : 20.7 MiB (0%)
  114. Title                                    : Spanish-PGS
  115. Language                                 : Spanish
  116. Default                                  : No
  117. Forced                                   : No
  118. Original source medium                   : Blu-ray
  119. Menu
  120. 00:00:00.000                             : en:Chapter 01
  121. 00:05:03.803                             : en:Chapter 02
  122. 00:09:47.211                             : en:Chapter 03
  123. 00:15:27.343                             : en:Chapter 04
  124. 00:20:17.174                             : en:Chapter 05
  125. 00:25:35.659                             : en:Chapter 06
  126. 00:30:45.969                             : en:Chapter 07
  127. 00:35:29.836                             : en:Chapter 08
  128. 00:41:41.665                             : en:Chapter 09
  129. 00:46:24.573                             : en:Chapter 10
  130. 00:49:47.609                             : en:Chapter 11
  131. 00:55:11.641                             : en:Chapter 12
  132. 00:58:32.926                             : en:Chapter 13
  133. 01:04:19.856                             : en:Chapter 14
  134. 01:10:25.971                             : en:Chapter 15
  135. 01:14:56.366                             : en:Chapter 16
  136. 01:18:13.689                             : en:Chapter 17
  137. 01:20:09.262                             : en:Chapter 18
  138. 01:25:24.202                             : en:Chapter 19
  139. 01:30:43.855                             : en:Chapter 20
复制代码



                                       
                                       

                                       
                                       
                                       




回复

使用道具 举报

蓝光币
10
发表于 2021-9-6 17:46:11 | 显示全部楼层
楼主发贴辛苦了,谢谢楼主分享!我觉得蓝光电影网是注册对了!
回复 支持 反对

使用道具 举报

懒得打字嘛,点击右侧快捷回复 【右侧内容,后台自定义】
您需要登录后才可以回帖 登录 | 立即加入

本版积分规则

Archiver|小黑屋| 蓝光电影网 |网站地图

Copyright © 2021 Comsenz Inc. Powered by 蓝光电影网

蓝光电影网

本站内容由用户自主分享和转载自互联网,转载目的在于传递更多信息,并不代表本网赞同其观点和对其真实性负责。

如有侵权、违反国家法律政策行为,请联系我们,我们会第一时间及时清除和处理!

举报反馈邮箱:[email protected]

快速回复 返回顶部 返回列表