找回密码

蓝光电影网

查看: 11|回复: 0

[动作] 迈凯伦 McLaren.2016.1080p.BluRay.x264-GHOULS 6.61GB

[复制链接]
蓝光币
515
发表于 2019-8-10 20:53:08 | 显示全部楼层 |阅读模式
[img]https://img1.doubanio.com/view/photo/l_ratio_poster/public/p2450980470.jpg[img]
◎译  名 迈凯伦
◎片  名 McLaren
◎年  代 2016
◎产  地 新西兰
◎类  别 行动 / 记载片 / 列传
◎语  言 英语
◎上映日期 2017-06-01(新西兰)
◎IMDb评分  7.3/10 from 1620 users
◎IMDb链接  http://www.imdb.com/title/tt5031332
◎豆瓣评分 0/10 from 0 users
◎豆瓣链接 https://movie.douban.com/subject/26707076/
◎片  长 92分钟
◎导  演 罗杰·唐纳森 Roger Donaldson
◎编  剧 James Brown / Matthew Metcalfe / Glenn Standring / Tim Woodhouse
◎标  签 记载片 | 赛车 | 列传 | F1 | 新西兰 | 记载 | 2016 | 活动
◎简  介  
  The story of Bruce McLaren, the New Zealander who founded the McLaren Motor Racing team. A man who showed the world that a man of humble beginnings could take on the elite of motor racing and win.
  1. Video
  2. ID                                       : 1
  3. Format                                   : AVC
  4. Format/Info                              : Advanced Video Codec
  5. Format profile                           : [email protected]
  6. Format settings, CABAC                   : Yes
  7. Format settings, ReFrames                : 5 frames
  8. Codec ID                                 : V_MPEG4/ISO/AVC
  9. Duration                                 : 1h 34mn
  10. Bit rate                                 : 9 215 Kbps
  11. Width                                    : 1 920 pixels
  12. Height                                   : 808 pixels
  13. Display aspect ratio                     : 2.40:1
  14. Frame rate mode                          : Constant
  15. Frame rate                               : 23.976 (24000/1001) fps
  16. Color space                              : YUV
  17. Chroma subsampling                       : 4:2:0
  18. Bit depth                                : 8 bits
  19. Scan type                                : Progressive
  20. Bits/(Pixel*Frame)                       : 0.248
  21. Stream size                              : 5.92 GiB (90%)
  22. Writing library                          : x264 core 150 r2829 d1fe6fd
  23. Encoding settings                        : cabac=1 / ref=5 / deblock=1:-3:-3 / analyse=0x3:0x133 / me=umh / subme=8 / psy=1 / psy_rd=1.00:0.00 / mixed_ref=1 / me_range=16 / chroma_me=1 / trellis=1 / 8x8dct=1 / cqm=0 / deadzone=21,11 / fast_pskip=0 / chroma_qp_offset=-2 / threads=6 / lookahead_threads=1 / sliced_threads=0 / nr=0 / decimate=1 / interlaced=0 / bluray_compat=0 / constrained_intra=0 / bframes=3 / b_pyramid=2 / b_adapt=1 / b_bias=0 / direct=3 / weightb=1 / open_gop=0 / weightp=2 / keyint=250 / keyint_min=23 / scenecut=40 / intra_refresh=0 / rc_lookahead=50 / rc=2pass / mbtree=1 / bitrate=9215 / ratetol=1.0 / qcomp=0.60 / qpmin=0 / qpmax=69 / qpstep=4 / cplxblur=20.0 / qblur=0.5 / vbv_maxrate=62500 / vbv_bufsize=78125 / nal_hrd=none / filler=0 / ip_ratio=1.40 / aq=1:1.00
  24. Default                                  : Yes
  25. Forced                                   : No

  26. Audio
  27. ID                                       : 2
  28. Format                                   : DTS
  29. Format/Info                              : Digital Theater Systems
  30. Mode                                     : 16
  31. Format settings, Endianness              : Big
  32. Codec ID                                 : A_DTS
  33. Duration                                 : 1h 34mn
  34. Bit rate mode                            : Constant
  35. Bit rate                                 : 768 Kbps
  36. Channel(s)                               : 6 channels
  37. Channel positions                        : Front: L C R, Side: L R, LFE
  38. Sampling rate                            : 48.0 KHz
  39. Frame rate                               : 93.750 fps (512 spf)
  40. Bit depth                                : 24 bits
  41. Compression mode                         : Lossy
  42. Stream size                              : 517 MiB (8%)
  43. Language                                 : English
  44. Default                                  : Yes
  45. Forced                                   : No

  46. Menu
  47. 00:00:00.000                             : en:00:00:00.000
  48. 00:07:09.429                             : en:00:07:09.429
  49. 00:15:21.671                             : en:00:15:21.671
  50. 00:22:11.413                             : en:00:22:11.413
  51. 00:30:06.138                             : en:00:30:06.138
  52. 00:38:14.375                             : en:00:38:14.375
  53. 00:45:18.674                             : en:00:45:18.674
  54. 00:52:18.969                             : en:00:52:18.969
  55. 00:59:14.551                             : en:00:59:14.551
  56. 01:08:12.839                             : en:01:08:12.839
  57. 01:15:19.098                             : en:01:15:19.098
  58. 01:22:36.076                             : en:01:22:36.076
复制代码




                                       
                                       

                                       
                                       
                                       




回复

使用道具 举报

懒得打字嘛,点击右侧快捷回复 【右侧内容,后台自定义】
您需要登录后才可以回帖 登录 | 立即加入

本版积分规则

Archiver|小黑屋| 蓝光电影网 |网站地图

Copyright © 2021 Comsenz Inc. Powered by 蓝光电影网

蓝光电影网

本站内容由用户自主分享和转载自互联网,转载目的在于传递更多信息,并不代表本网赞同其观点和对其真实性负责。

如有侵权、违反国家法律政策行为,请联系我们,我们会第一时间及时清除和处理!

举报反馈邮箱:[email protected]

快速回复 返回顶部 返回列表