找回密码

蓝光电影网

查看: 47|回复: 0

[动作] 高地行动 High.Ground.2020.1080p.BluRay.REMUX.AVC.DTS-HD.MA.5.1-FGT 16.96GB

[复制链接]
蓝光币
511
发表于 2020-12-5 10:18:23 | 显示全部楼层 |阅读模式


◎译  名 高地行动
◎片  名 High Ground
◎年  代 2020
◎产  地 澳大利亚
◎类  别 行动 / 惊悚 / 历史 / 西部
◎语  言 英语,雍古语
◎上映日期 2020-02-23(柏林电影节) / 2020-07-09(澳大利亚)
◎IMDb评分  6.3/10 from 174 users
◎IMDb链接  https://www.imdb.com/title/tt9286908/
◎豆瓣评分 /10 from 0 users
◎豆瓣链接 https://movie.douban.com/subject/34955339/
◎片  长 104分钟
◎导  演 斯蒂芬·麦克斯韦·约翰逊 Stephen Maxwell Johnson
◎编  剧 克里斯·阿纳斯塔西亚德斯 Chris Anastassiades
◎主  演 西蒙·贝克 Simon Baker
       卡兰·马尔韦 Callan Mulvey
       杰克·汤普森 Jack Thompson
       凯伦·皮斯托里斯 Caren Pistorius
       瑞安·柯尔 Ryan Corr
       约翰·布鲁普顿 John Brumpton
       大卫·菲尔德 David Field
       安迪·麦克菲 Andy McPhee
       亚伦·佩德森 Aaron Pedersen
◎标  签 西部 | 澳大利亚 | 2020 | P-BerlinD出格展映 | Berlin出格展映
◎简  介


  1919. After fighting in WWI as a sniper Travis, now a Policeman in the vast empty spaces of northern Australia, loses control of an operation that results in the massacre of an Indigenous tribe. After his superiors insist on burying the truth Travis leaves in disgust, only to be forced back twelve years later to hunt down Baywara, an Aboriginal warrior whose attacks on new-settlers are causing havoc. When Travis recruits mission-raised Gutjuk, the only known massacre-survivor as his Tracker, the truth of the past is revealed and Travis becomes the hunted.
  1. Video
  2. ID                                       : 1
  3. ID in the original source medium         : 4113 (0x1011)
  4. Format                                   : AVC
  5. Format/Info                              : Advanced Video Codec
  6. Format profile                           : [email protected]
  7. Format settings                          : CABAC / 2 Ref Frames
  8. Format settings, CABAC                   : Yes
  9. Format settings, Reference frames        : 2 frames
  10. Codec ID                                 : V_MPEG4/ISO/AVC
  11. Duration                                 : 1 h 44 min
  12. Bit rate mode                            : Variable
  13. Bit rate                                 : 21.2 Mb/s
  14. Maximum bit rate                         : 35.2 Mb/s
  15. Width                                    : 1 920 pixels
  16. Height                                   : 1 080 pixels
  17. Display aspect ratio                     : 16:9
  18. Frame rate mode                          : Constant
  19. Frame rate                               : 24.000 FPS
  20. Color space                              : YUV
  21. Chroma subsampling                       : 4:2:0
  22. Bit depth                                : 8 bits
  23. Scan type                                : Progressive
  24. Bits/(Pixel*Frame)                       : 0.426
  25. Stream size                              : 15.5 GiB (91%)
  26. Title                                    : High.Ground.2020.1080p.BluRay.REMUX.AVC.DTS-HD.MA.5.1-FGT
  27. Language                                 : English
  28. Default                                  : No
  29. Forced                                   : No
  30. Original source medium                   : Blu-ray
  31. Audio
  32. ID                                       : 2
  33. ID in the original source medium         : 4353 (0x1101)
  34. Format                                   : DTS XLL
  35. Format/Info                              : Digital Theater Systems
  36. Commercial name                          : DTS-HD Master Audio
  37. Codec ID                                 : A_DTS
  38. Duration                                 : 1 h 44 min
  39. Bit rate mode                            : Variable
  40. Bit rate                                 : 1 983 kb/s
  41. Channel(s)                               : 6 channels
  42. Channel layout                           : C L R Ls Rs LFE
  43. Sampling rate                            : 48.0 kHz
  44. Frame rate                               : 93.750 FPS (512 SPF)
  45. Bit depth                                : 16 bits
  46. Compression mode                         : Lossless
  47. Stream size                              : 1.45 GiB (9%)
  48. Title                                    : High.Ground.2020.1080p.BluRay.REMUX.AVC.DTS-HD.MA.5.1-FGT
  49. Language                                 : English
  50. Default                                  : Yes
  51. Forced                                   : No
  52. Original source medium                   : Blu-ray
  53. Text #1
  54. ID                                       : 3
  55. Format                                   : UTF-8
  56. Codec ID                                 : S_TEXT/UTF8
  57. Codec ID/Info                            : UTF-8 Plain Text
  58. Duration                                 : 1 h 24 min
  59. Bit rate                                 : 8 b/s
  60. Count of elements                        : 207
  61. Stream size                              : 5.12 KiB (0%)
  62. Title                                    : English-FORCED-SRT
  63. Language                                 : English
  64. Default                                  : Yes
  65. Forced                                   : Yes
  66. Text #2
  67. ID                                       : 4
  68. ID in the original source medium         : 4610 (0x1202)
  69. Format                                   : PGS
  70. Muxing mode                              : zlib
  71. Codec ID                                 : S_HDMV/PGS
  72. Codec ID/Info                            : Picture based subtitle format used on BDs/HD-DVDs
  73. Duration                                 : 1 h 24 min
  74. Bit rate                                 : 5 694 b/s
  75. Count of elements                        : 413
  76. Stream size                              : 3.43 MiB (0%)
  77. Title                                    : English-FORCED-PGS
  78. Language                                 : English
  79. Default                                  : No
  80. Forced                                   : No
  81. Original source medium                   : Blu-ray
  82. Menu
  83. 00:00:00.000                             : en:Chapter 01
  84. 00:02:20.000                             : en:Chapter 02
  85. 00:06:05.083                             : en:Chapter 03
  86. 00:14:14.625                             : en:Chapter 04
  87. 00:20:32.916                             : en:Chapter 05
  88. 00:26:07.791                             : en:Chapter 06
  89. 00:37:07.291                             : en:Chapter 07
  90. 00:49:56.333                             : en:Chapter 08
  91. 00:58:27.750                             : en:Chapter 09
  92. 01:08:08.416                             : en:Chapter 10
  93. 01:20:08.583                             : en:Chapter 11
  94. 01:35:24.791                             : en:Chapter 12
复制代码





                                       
                                       

                                       
                                       
                                       




回复

使用道具 举报

懒得打字嘛,点击右侧快捷回复 【右侧内容,后台自定义】
您需要登录后才可以回帖 登录 | 立即加入

本版积分规则

Archiver|小黑屋| 蓝光电影网 |网站地图

Copyright © 2021 Comsenz Inc. Powered by 蓝光电影网

蓝光电影网

本站内容由用户自主分享和转载自互联网,转载目的在于传递更多信息,并不代表本网赞同其观点和对其真实性负责。

如有侵权、违反国家法律政策行为,请联系我们,我们会第一时间及时清除和处理!

举报反馈邮箱:[email protected]

快速回复 返回顶部 返回列表