找回密码

蓝光电影网

查看: 23|回复: 0

[喜剧] 魔鸟/魔鸦 The.Raven.1963.1080p.BluRay.X264-AMIABLE 6.56GB

[复制链接]
蓝光币
519
发表于 2020-12-2 08:48:46 | 显示全部楼层 |阅读模式


◎译  名 魔鸟/魔鸦
◎片  名 The Raven
◎年  代 1963
◎产  地 美国
◎类  别 笑剧 / 可骇 / 奇异
◎语  言 英语
◎上映日期 1963-01-25
◎IMDb评分  6.6/10 from 10536 users
◎IMDb链接  https://www.imdb.com/title/tt0057449/
◎豆瓣评分 6.5/10 from 130 users
◎豆瓣链接 https://movie.douban.com/subject/1303391/
◎片  长 86 分钟
◎导  演 罗杰·科曼 Roger Corman
◎编  剧 理查德·麦瑟森 Richard Matheson / 埃德加·爱伦·坡  Edgar Allan Poe
◎主  演 文森特·普莱斯 Vincent Price
       彼得·洛 Peter Lorre
       杰克·尼科尔森 Jack Nicholson
       波利斯·卡洛夫 Boris Karloff
       Aaron Saxon
       约翰·迪克斯 John Dierkes
       哈泽尔·考特 Hazel Court
◎标  签 美国 | 1960s | 笑剧 | VincentPrice | 可骇 | RogerCorman | 奇异 | Vincent_Price
◎简  介


  在一个夜晚,魔法师克诺夫碰见了被斯卡夫得酿成了乌鸦的贝多得,经过贝很多的论述,克诺夫晓得斯卡夫得控制了亡妻丽诺尔的灵魂。因而,克诺夫和贝多得一行人就踏上了向斯卡夫得复仇的门路...让人意想不到的是,贝多得和丽诺尔都是斯卡夫得的翅膀,最初,克诺夫踏上了自救与复仇的门路...
  1. Video
  2. ID                                       : 1
  3. Format                                   : AVC
  4. Format/Info                              : Advanced Video Codec
  5. Format profile                           : [email protected]
  6. Format settings                          : CABAC / 5 Ref Frames
  7. Format settings, CABAC                   : Yes
  8. Format settings, Reference frames        : 5 frames
  9. Codec ID                                 : V_MPEG4/ISO/AVC
  10. Duration                                 : 1 h 26 min
  11. Bit rate                                 : 9 390 kb/s
  12. Width                                    : 1 920 pixels
  13. Height                                   : 816 pixels
  14. Display aspect ratio                     : 2.35:1
  15. Frame rate mode                          : Constant
  16. Frame rate                               : 23.976 (24000/1001/189150) FPS
  17. Color space                              : YUV
  18. Chroma subsampling                       : 4:2:0
  19. Bit depth                                : 8 bits
  20. Scan type                                : Progressive
  21. Bits/(Pixel*Frame)                       : 0.250
  22. Stream size                              : 5.52 GiB (84%)
  23. Writing library                          : x264 core 142 r2479 dd79a61
  24. Encoding settings                        : cabac=1 / ref=5 / deblock=1:-3:-3 / analyse=0x3:0x113 / me=umh / subme=8 / psy=1 / psy_rd=1.00:0.00 / mixed_ref=1 / me_range=16 / chroma_me=1 / trellis=1 / 8x8dct=1 / cqm=0 / deadzone=21,11 / fast_pskip=1 / chroma_qp_offset=-2 / threads=12 / lookahead_threads=2 / sliced_threads=0 / nr=0 / decimate=1 / interlaced=0 / bluray_compat=0 / constrained_intra=0 / bframes=3 / b_pyramid=2 / b_adapt=2 / b_bias=0 / direct=3 / weightb=1 / open_gop=0 / weightp=2 / keyint=240 / keyint_min=24 / scenecut=40 / intra_refresh=0 / rc_lookahead=50 / rc=2pass / mbtree=1 / bitrate=9390 / ratetol=1.0 / qcomp=0.60 / qpmin=0 / qpmax=69 / qpstep=4 / cplxblur=20.0 / qblur=0.5 / ip_ratio=1.40 / aq=1:1.00
  25. Language                                 : English
  26. Default                                  : Yes
  27. Forced                                   : No

  28. Audio
  29. ID                                       : 2
  30. Format                                   : DTS
  31. Format/Info                              : Digital Theater Systems
  32. Codec ID                                 : A_DTS
  33. Duration                                 : 1 h 26 min
  34. Bit rate mode                            : Constant
  35. Bit rate                                 : 1 509 kb/s
  36. Channel(s)                               : 2 channels
  37. Channel layout                           : L R
  38. Sampling rate                            : 48.0 kHz
  39. Frame rate                               : 93.750 FPS (512 SPF)
  40. Bit depth                                : 24 bits
  41. Compression mode                         : Lossy
  42. Stream size                              : 930 MiB (14%)
  43. Language                                 : English
  44. Default                                  : Yes
  45. Forced                                   : No

  46. Text
  47. ID                                       : 3
  48. Format                                   : UTF-8
  49. Codec ID                                 : S_TEXT/UTF8
  50. Codec ID/Info                            : UTF-8 Plain Text
  51. Language                                 : English
  52. Default                                  : No
  53. Forced                                   : No

  54. Menu
  55. 00:00:00.000                             : en:00:00:00.000
  56. 00:05:03.512                             : en:00:05:03.512
  57. 00:10:16.866                             : en:00:10:16.866
  58. 00:16:51.510                             : en:00:16:51.510
  59. 00:25:00.874                             : en:00:25:00.874
  60. 00:35:59.282                             : en:00:35:59.282
  61. 00:42:28.963                             : en:00:42:28.963
  62. 00:50:03.584                             : en:00:50:03.584
  63. 00:56:38.604                             : en:00:56:38.604
  64. 01:03:41.067                             : en:01:03:41.067
  65. 01:10:44.073                             : en:01:10:44.073
  66. 01:18:56.815                             : en:01:18:56.815
复制代码









                                       
                                       

                                       
                                       
                                       




回复

使用道具 举报

懒得打字嘛,点击右侧快捷回复 【右侧内容,后台自定义】
您需要登录后才可以回帖 登录 | 立即加入

本版积分规则

Archiver|小黑屋| 蓝光电影网 |网站地图

Copyright © 2021 Comsenz Inc. Powered by 蓝光电影网

蓝光电影网

本站内容由用户自主分享和转载自互联网,转载目的在于传递更多信息,并不代表本网赞同其观点和对其真实性负责。

如有侵权、违反国家法律政策行为,请联系我们,我们会第一时间及时清除和处理!

举报反馈邮箱:[email protected]

快速回复 返回顶部 返回列表