找回密码

蓝光电影网

查看: 11|回复: 0

[其他] 遗落之地 The.Abandoned.2006.1080p.BluRay.x264.DTS-FGT 6.48GB

[复制链接]
蓝光币
509
发表于 2020-9-23 08:35:45 | 显示全部楼层 |阅读模式


◎译  名 遗落之地
◎片  名 The Abandoned
◎年  代 2006
◎产  地 西班牙/英国/保加利亚
◎类  别 悬疑 / 惊悚 / 可骇
◎语  言 英语,俄语
◎上映日期 2006-09-11
◎IMDb评分  5.6/10 from 12354 users
◎IMDb链接  https://www.imdb.com/title/tt0475937/
◎豆瓣评分 6.2/10 from 901 users
◎豆瓣链接 https://movie.douban.com/subject/1858259/
◎片  长 99 分钟
◎导  演 纳乔·塞达 Nacho Cerdà
◎编  剧 卡里姆·胡桑 Karim Hussain / 纳乔·塞达 Nacho Cerdà / 理查德·斯坦利 Richard Stanley
◎主  演 卡瑞尔·罗登 Karel Roden
       Kalin Arsov
       Paraskeva Djukelova
       瓦伦丁·加内夫 Valentin Ganev
       瓦伦丁·高斯舍夫 Valentin Goshev
       卡洛斯·雷格-普拉扎 Carlos Reig-Plaza
◎标  签 可骇 | 西班牙 | 惊悚 | 悬疑 | 灵异 | 可骇片 | 西班牙电影 | 2006
◎简  介


  已年届中年的玛丽·琼斯(阿纳茜塔茜亚·希尔 Anastasia Hille 饰)是一位电影制片人,但在她鲜明的表面下却有着不为人知的曩昔。她最早诞生在俄国,尚在襁褓时便被美国一户人家收养。随着一封遗言的到来,玛丽终究出发回到未知而奥秘、陌生又熟悉的故乡。遗言中她俄国怙恃业已双亡,作为唯一的正当继续人,玛丽行将具有怙恃的产业——位于俄国某偏僻山村的卡迪诺夫斯基农场。可是该农场被当地人视为不祥的地点,没人愿意为玛丽带路。几经周折,她终极到达目标地。在此她不但早于希奇的幻象,更遭受了自称是她双胞胎兄弟的尼古拉(凯勒·罗登 Karel Roden 饰)。它们都被同一封遗书引领至此。
  
  在此以后,诡异的工作相继发生……
  1. Video
  2. ID                                       : 1
  3. Format                                   : AVC
  4. Format/Info                              : Advanced Video Codec
  5. Format profile                           : [email protected]
  6. Format settings                          : CABAC / 5 Ref Frames
  7. Format settings, CABAC                   : Yes
  8. Format settings, Reference frames        : 5 frames
  9. Codec ID                                 : V_MPEG4/ISO/AVC
  10. Duration                                 : 1 h 39 min
  11. Bit rate                                 : 7 629 kb/s
  12. Width                                    : 1 920 pixels
  13. Height                                   : 816 pixels
  14. Display aspect ratio                     : 2.35:1
  15. Frame rate mode                          : Constant
  16. Frame rate                               : 23.976 (24000/1001/189150) FPS
  17. Color space                              : YUV
  18. Chroma subsampling                       : 4:2:0
  19. Bit depth                                : 8 bits
  20. Scan type                                : Progressive
  21. Bits/(Pixel*Frame)                       : 0.203
  22. Stream size                              : 5.30 GiB (82%)
  23. Writing library                          : x264 core 133 r2334 a3ac64b
  24. Encoding settings                        : cabac=1 / ref=5 / deblock=1:0:0 / analyse=0x3:0x113 / me=umh / subme=7 / psy=1 / psy_rd=1.00:0.00 / mixed_ref=1 / me_range=16 / chroma_me=1 / trellis=1 / 8x8dct=1 / cqm=0 / deadzone=21,11 / fast_pskip=0 / chroma_qp_offset=-2 / threads=6 / lookahead_threads=1 / sliced_threads=0 / nr=0 / decimate=1 / interlaced=0 / bluray_compat=0 / constrained_intra=0 / bframes=3 / b_pyramid=2 / b_adapt=1 / b_bias=0 / direct=1 / weightb=1 / open_gop=0 / weightp=2 / keyint=250 / keyint_min=23 / scenecut=40 / intra_refresh=0 / rc_lookahead=40 / rc=crf / mbtree=1 / crf=20.0 / qcomp=0.60 / qpmin=0 / qpmax=69 / qpstep=4 / ip_ratio=1.40 / aq=1:1.00
  25. Language                                 : English
  26. Default                                  : Yes
  27. Forced                                   : No

  28. Audio
  29. ID                                       : 2
  30. Format                                   : DTS
  31. Format/Info                              : Digital Theater Systems
  32. Codec ID                                 : A_DTS
  33. Duration                                 : 1 h 39 min
  34. Bit rate mode                            : Constant
  35. Bit rate                                 : 1 509 kb/s
  36. Channel(s)                               : 6 channels
  37. Channel layout                           : C L R Ls Rs LFE
  38. Sampling rate                            : 48.0 kHz
  39. Frame rate                               : 93.750 FPS (512 SPF)
  40. Bit depth                                : 16 bits
  41. Compression mode                         : Lossy
  42. Stream size                              : 1.05 GiB (16%)
  43. Language                                 : English
  44. Default                                  : Yes
  45. Forced                                   : No
复制代码









                                       
                                       

                                       
                                       
                                       




回复

使用道具 举报

懒得打字嘛,点击右侧快捷回复 【右侧内容,后台自定义】
您需要登录后才可以回帖 登录 | 立即加入

本版积分规则

Archiver|小黑屋| 蓝光电影网 |网站地图

Copyright © 2021 Comsenz Inc. Powered by 蓝光电影网

蓝光电影网

本站内容由用户自主分享和转载自互联网,转载目的在于传递更多信息,并不代表本网赞同其观点和对其真实性负责。

如有侵权、违反国家法律政策行为,请联系我们,我们会第一时间及时清除和处理!

举报反馈邮箱:[email protected]

快速回复 返回顶部 返回列表