找回密码

蓝光电影网

查看: 10|回复: 0

[剧情] 阵容 The.Lineup.1958.1080p.BluRay.REMUX.AVC.DTS-HD.MA.1.0-FGT 13.79GB

[复制链接]
蓝光币
515
发表于 2019-9-18 01:08:31 | 显示全部楼层 |阅读模式


◎译  名 声势
◎片  名 The Lineup
◎年  代 1958
◎产  地 美国
◎类  别 剧情 / 犯罪 / 黑色电影
◎语  言 英语
◎上映日期 1958-06-11
◎IMDb评分  7.4/10 from 2362 users
◎IMDb链接  http://www.imdb.com/title/tt0051866
◎豆瓣评分 7.6/10 from 193 users
◎豆瓣链接 https://movie.douban.com/subject/3428410/
◎片  长 86 分钟
◎导  演 唐·希格尔 Don Siegel
◎编  剧 斯特林·西利芬特 Stirling Silliphant
◎主  演 埃里·瓦拉赫 Eli Wallach
       Robert Keith
       理查德·杰克尔 Richard Jaeckel
       Mary LaRoche

◎标  签 美国 | 黑色电影 | 犯罪 | 1950s | Don_Siegel | 唐·希格尔 | 美国电影 | 1958
◎简  介  
  (IMDB) In San Francisco, two police inspectors are on the case when a rogue taxi driver, with the help of a rogue porter, manages to steal the suitcase of an antiques collector before running down a cop, whose dying gesture is to shoot the cabbie dead. The inspectors discover that a statuette in the suitcase contains heroin. Meanwhile, a psychopathic gangster, his malignant mentor and their dipsomaniac driver have the job of picking up the other heroin shipments, hidden in the luggage of unsuspecting travelers. All goes well until they attempt to retrieve the heroin stuffed in a Japanese doll. A little girl and her lovely young mother have the doll, but when the crooks take possession of it, they find that the heroin has mysteriously vanished. Written by J. Spurlin
  1. Video
  2. ID                                       : 1
  3. Format                                   : AVC
  4. Format/Info                              : Advanced Video Codec
  5. Format profile                           : [email protected]
  6. Format settings                          : CABAC / 4 Ref Frames
  7. Format settings, CABAC                   : Yes
  8. Format settings, Reference frames        : 4 frames
  9. Codec ID                                 : V_MPEG4/ISO/AVC
  10. Duration                                 : 1 h 26 min
  11. Bit rate mode                            : Variable
  12. Bit rate                                 : 22.0 Mb/s
  13. Maximum bit rate                         : 30.0 Mb/s
  14. Width                                    : 1 920 pixels
  15. Height                                   : 1 080 pixels
  16. Display aspect ratio                     : 16:9
  17. Frame rate mode                          : Constant
  18. Frame rate                               : 23.976 (24000/1001) FPS
  19. Standard                                 : NTSC
  20. Color space                              : YUV
  21. Chroma subsampling                       : 4:2:0
  22. Bit depth                                : 8 bits
  23. Scan type                                : Progressive
  24. Bits/(Pixel*Frame)                       : 0.442
  25. Stream size                              : 13.3 GiB (96%)
  26. Title                                    : The.Lineup.1958.1080p.BluRay.REMUX.AVC.DTS-HD.MA.1.0-FGT
  27. Language                                 : English
  28. Default                                  : No
  29. Forced                                   : No
  30. Color range                              : Limited
  31. Color primaries                          : BT.709
  32. Transfer characteristics                 : BT.709
  33. Matrix coefficients                      : BT.709
  34. Audio
  35. ID                                       : 2
  36. Format                                   : DTS XLL
  37. Format/Info                              : Digital Theater Systems
  38. Commercial name                          : DTS-HD Master Audio
  39. Codec ID                                 : A_DTS
  40. Duration                                 : 1 h 26 min
  41. Bit rate mode                            : Variable
  42. Bit rate                                 : 822 kb/s
  43. Channel(s)                               : 1 channel
  44. Channel layout                           : C
  45. Sampling rate                            : 48.0 kHz
  46. Frame rate                               : 93.750 FPS (512 SPF)
  47. Bit depth                                : 24 bits
  48. Compression mode                         : Lossless
  49. Stream size                              : 508 MiB (4%)
  50. Title                                    : The.Lineup.1958.1080p.BluRay.REMUX.AVC.DTS-HD.MA.1.0-FGT
  51. Language                                 : English
  52. Default                                  : Yes
  53. Forced                                   : No
  54. Text
  55. ID                                       : 3
  56. Format                                   : PGS
  57. Muxing mode                              : zlib
  58. Codec ID                                 : S_HDMV/PGS
  59. Codec ID/Info                            : Picture based subtitle format used on BDs/HD-DVDs
  60. Duration                                 : 1 h 26 min
  61. Bit rate                                 : 27.9 kb/s
  62. Count of elements                        : 2925
  63. Stream size                              : 17.2 MiB (0%)
  64. Title                                    : English-PGS
  65. Language                                 : English
  66. Default                                  : Yes
  67. Forced                                   : No
  68. Menu
  69. 00:00:00.000                             : en:Chapter 01
  70. 00:01:55.698                             : en:Chapter 02
  71. 00:05:43.718                             : en:Chapter 03
  72. 00:12:29.832                             : en:Chapter 04
  73. 00:18:44.623                             : en:Chapter 05
  74. 00:23:30.951                             : en:Chapter 06
  75. 00:29:22.343                             : en:Chapter 07
  76. 00:36:54.545                             : en:Chapter 08
  77. 00:45:13.168                             : en:Chapter 09
  78. 00:51:55.779                             : en:Chapter 10
  79. 00:58:32.592                             : en:Chapter 11
  80. 01:05:25.796                             : en:Chapter 12
  81. 01:11:57.479                             : en:Chapter 13
  82. 01:17:11.335                             : en:Chapter 14
复制代码






                                       
                                       

                                       
                                       
                                       




回复

使用道具 举报

懒得打字嘛,点击右侧快捷回复 【右侧内容,后台自定义】
您需要登录后才可以回帖 登录 | 立即加入

本版积分规则

Archiver|小黑屋| 蓝光电影网 |网站地图

Copyright © 2021 Comsenz Inc. Powered by 蓝光电影网

蓝光电影网

本站内容由用户自主分享和转载自互联网,转载目的在于传递更多信息,并不代表本网赞同其观点和对其真实性负责。

如有侵权、违反国家法律政策行为,请联系我们,我们会第一时间及时清除和处理!

举报反馈邮箱:[email protected]

快速回复 返回顶部 返回列表