找回密码

蓝光电影网

查看: 15|回复: 0

[剧情] 现代启示录/当代启示录 Apocalypse.Now.1979.Final.Cut.1080p.BluRay.REMUX.AVC.DTS-HD.MA.TrueHD.7.1.Atmos-FGT 47.26GB

[复制链接]
蓝光币
515
发表于 2019-9-11 04:30:10 | 显示全部楼层 |阅读模式


◎译  名 现代启迪录 / 今世启迪录
◎片  名 Apocalypse Now
◎年  代 1979
◎产  地 美国
◎类  别 剧情 / 战争
◎语  言 英语 / 法语 / 高棉语 / 越南语
◎上映日期 1979-05-19(戛纳电影节) / 1979-08-15(美国)
◎IMDb评分  8.4/10 from 556043 users
◎IMDb链接  http://www.imdb.com/title/tt0078788
◎豆瓣评分 8.4/10 from 63583 users
◎豆瓣链接 https://movie.douban.com/subject/1292260/
◎片  长 147分钟(公映版)
◎导  演 弗朗西斯·福特·科波拉 Francis Ford Coppola
◎编  剧 约翰·米利厄斯 John Milius / 弗朗西斯·福特·科波拉 Francis Ford Coppola / 迈克尔·海尔 Michael Herr / 约瑟夫·康拉德 Joseph Conrad
◎主  演 马龙·白兰度 Marlon Brando
       马丁·辛 Martin Sheen
       罗伯特·杜瓦尔 Robert Duvall
       弗雷德里克·福瑞斯特 Frederic Forrest
       山姆·伯顿斯 Sam Bottoms
       劳伦斯·菲什伯恩 Laurence Fishburne
       阿尔伯特·海尔 Albert Hall
       哈里森·福特 Harrison Ford
       丹尼斯·霍珀 Dennis Hopper
       G·D·斯普拉德林 G.D. Spradlin
       斯科特·格伦 Scott Glenn
       詹姆斯·基恩 James Keane
       Kerry Rossall
       辛西娅·伍德 Cynthia Wood
       考林·加普 Colleen Camp
       Linda Carpenter
       杰克·唐蒂博 Jack Thibeau
       Glenn Walken
       达米安·利克 Damien Leake
       Herb Rice
       Marc Coppola
       比尔·格雷厄姆 Bill Graham
       Jerry Ross
       Dick White
       克里斯蒂安·马康 Christian Marquand
       奥萝尔·克莱芒 Aurore Clément
       Franck Villard
       罗曼·科波拉 Roman Coppola
       吉安-卡洛·科波拉 Gian-Carlo Coppola
       弗朗西斯·福特·科波拉 Francis Ford Coppola
       李·厄米 R. Lee Ermey
       乔·艾斯特维兹 Joe Estevez
       拉瑞·弗兰科 Larry J. Franco
       吉姆·盖恩斯 Jim Gaines
       Evan A. Lottman
       Charles Robinson
       维托里奥·斯托拉罗 Vittorio Storaro

◎标  签 战争 | 越战 | 美国 | 人性 | 弗朗西斯·福特·科波拉 | 典范 | 美国电影 | 科波拉
◎简  介  
  越战前期,美军上尉威拉德(马丁?辛 Martin Sheen 饰)受命沿湄公河而上,搜寻离开美军在柬埔寨建立了自己的王国的科茨(马龙?白兰度 Marlon Brando 饰)上尉,将他带回或杀死。科茨上尉已经是美军在越战中的豪杰,战功赫赫。但是,忽然有一天,他失落了。随后,情报指出他在柬埔扎建立了自己的王国,自己的军队,专门否决美军。
  威拉德与几名流兵一路沿河而上,途中他们目击了各种暴行、杀戮,目击了不管美军兵士还是当地人在持久的战争中精神扭曲,做出的各种非一般的行为,威拉德感应了极大的震动。
  威拉德最初在柬埔寨科茨的王国中被当地人捉住,见到了科茨。但是,科茨竟欲求一死,叫威拉德将这里炸为高山……
◎获奖情况  
  第52届奥斯卡金像奖(1980)
  最好影片(提名) 弗雷德·鲁斯 / 弗朗西斯·福特·科波拉 / 加里·弗雷德里克森 / 汤姆·斯滕伯格
  最好导演(提名) 弗朗西斯·福特·科波拉
  最好男配角(提名) 罗伯特·杜瓦尔
  最好改编剧本(提名) 弗朗西斯·福特·科波拉 / 约翰·米利厄斯
  最好摄影 维托里奥·斯托拉罗
  最好剪辑(提名) 沃尔特·默奇 / 杰拉德·B·格林伯格 / 理查德·马克斯 / 丽莎·弗拉特曼
  最好声响 理查德·贝格斯 / 内森·博克瑟 / 马克·伯格 / 沃尔特·默奇
  最好艺术指导(提名) 乔治·R·尼尔森 / 迪安·塔沃拉里斯 / 安杰洛·P·格雷厄姆
  第32届戛纳电影节(1979)
  主比赛单元 金棕榈奖 弗朗西斯·福特·科波拉
  费比西奖 比赛单元奖 弗朗西斯·福特·科波拉
  1. Video
  2. ID                                       : 1
  3. Format                                   : AVC
  4. Format/Info                              : Advanced Video Codec
  5. Format profile                           : [email protected]
  6. Format settings                          : CABAC / 4 Ref Frames
  7. Format settings, CABAC                   : Yes
  8. Format settings, Reference frames        : 4 frames
  9. Codec ID                                 : V_MPEG4/ISO/AVC
  10. Duration                                 : 3 h 1 min
  11. Bit rate mode                            : Variable
  12. Bit rate                                 : 26.0 Mb/s
  13. Maximum bit rate                         : 34.0 Mb/s
  14. Width                                    : 1 920 pixels
  15. Height                                   : 1 080 pixels
  16. Display aspect ratio                     : 16:9
  17. Frame rate mode                          : Constant
  18. Frame rate                               : 23.976 (24000/1001) FPS
  19. Color space                              : YUV
  20. Chroma subsampling                       : 4:2:0
  21. Bit depth                                : 8 bits
  22. Scan type                                : Progressive
  23. Bits/(Pixel*Frame)                       : 0.522
  24. Stream size                              : 33.0 GiB (70%)
  25. Title                                    : Apocalypse.Now.1979.Final.Cut.1080p.BluRay.REMUX.AVC.DTS-HD.MA.TrueHD.7.1.Atmos-FGT
  26. Language                                 : English
  27. Default                                  : No
  28. Forced                                   : No
  29. Audio #1
  30. ID                                       : 2
  31. Format                                   : MLP FBA 16-ch
  32. Format/Info                              : Meridian Lossless Packing FBA with 16-channel presentation
  33. Commercial name                          : Dolby TrueHD with Dolby Atmos
  34. Codec ID                                 : A_TRUEHD
  35. Duration                                 : 3 h 1 min
  36. Bit rate mode                            : Variable
  37. Bit rate                                 : 5 882 kb/s
  38. Maximum bit rate                         : 10.2 Mb/s
  39. Channel(s)                               : 8 channels
  40. Channel layout                           : L R C LFE Ls Rs Lb Rb
  41. Sampling rate                            : 48.0 kHz
  42. Frame rate                               : 1 200.000 FPS (40 SPF)
  43. Compression mode                         : Lossless
  44. Stream size                              : 7.48 GiB (16%)
  45. Title                                    : Apocalypse.Now.1979.Final.Cut.1080p.BluRay.REMUX.AVC.DTS-HD.MA.TrueHD.7.1.Atmos-FGT
  46. Language                                 : English
  47. Default                                  : Yes
  48. Forced                                   : No
  49. Number of dynamic objects                : 11
  50. Bed channel count                        : 1 channel
  51. Bed channel configuration                : LFE
  52. Audio #2
  53. ID                                       : 3
  54. Format                                   : DTS XLL
  55. Format/Info                              : Digital Theater Systems
  56. Commercial name                          : DTS-HD Master Audio
  57. Codec ID                                 : A_DTS
  58. Duration                                 : 3 h 1 min
  59. Bit rate mode                            : Variable
  60. Bit rate                                 : 4 548 kb/s
  61. Channel(s)                               : 8 channels
  62. Channel layout                           : C L R LFE Lb Rb Lss Rss
  63. Sampling rate                            : 48.0 kHz
  64. Frame rate                               : 93.750 FPS (512 SPF)
  65. Bit depth                                : 24 bits
  66. Compression mode                         : Lossless
  67. Stream size                              : 5.78 GiB (12%)
  68. Title                                    : Apocalypse.Now.1979.Final.Cut.1080p.BluRay.REMUX.AVC.DTS-HD.MA.TrueHD.7.1.Atmos-FGT
  69. Language                                 : English
  70. Default                                  : No
  71. Forced                                   : No
  72. Audio #3
  73. ID                                       : 4
  74. Format                                   : AC-3
  75. Format/Info                              : Audio Coding 3
  76. Commercial name                          : Dolby Digital
  77. Codec ID                                 : A_AC3
  78. Duration                                 : 3 h 1 min
  79. Bit rate mode                            : Constant
  80. Bit rate                                 : 448 kb/s
  81. Channel(s)                               : 6 channels
  82. Channel layout                           : L R C LFE Ls Rs
  83. Sampling rate                            : 48.0 kHz
  84. Frame rate                               : 31.250 FPS (1536 SPF)
  85. Bit depth                                : 16 bits
  86. Compression mode                         : Lossy
  87. Stream size                              : 583 MiB (1%)
  88. Title                                    : Apocalypse.Now.1979.Final.Cut.1080p.BluRay.REMUX.AVC.DTS-HD.MA.TrueHD.7.1.Atmos-FGT
  89. Language                                 : English
  90. Service kind                             : Complete Main
  91. Default                                  : No
  92. Forced                                   : No
  93. Audio #4
  94. ID                                       : 5
  95. Format                                   : AC-3
  96. Format/Info                              : Audio Coding 3
  97. Commercial name                          : Dolby Digital
  98. Codec ID                                 : A_AC3
  99. Duration                                 : 3 h 1 min
  100. Bit rate mode                            : Constant
  101. Bit rate                                 : 192 kb/s
  102. Channel(s)                               : 2 channels
  103. Channel layout                           : L R
  104. Sampling rate                            : 48.0 kHz
  105. Frame rate                               : 31.250 FPS (1536 SPF)
  106. Bit depth                                : 16 bits
  107. Compression mode                         : Lossy
  108. Stream size                              : 250 MiB (1%)
  109. Title                                    : Apocalypse.Now.1979.Final.Cut.1080p.BluRay.REMUX.AVC.DTS-HD.MA.TrueHD.7.1.Atmos-FGT
  110. Language                                 : English
  111. Service kind                             : Complete Main
  112. Default                                  : No
  113. Forced                                   : No
  114. Text #1
  115. ID                                       : 6
  116. Format                                   : UTF-8
  117. Codec ID                                 : S_TEXT/UTF8
  118. Codec ID/Info                            : UTF-8 Plain Text
  119. Duration                                 : 2 h 51 min
  120. Bit rate                                 : 55 b/s
  121. Count of elements                        : 1695
  122. Stream size                              : 69.0 KiB (0%)
  123. Title                                    : English-SRT
  124. Language                                 : English
  125. Default                                  : Yes
  126. Forced                                   : No
  127. Text #2
  128. ID                                       : 7
  129. Format                                   : UTF-8
  130. Codec ID                                 : S_TEXT/UTF8
  131. Codec ID/Info                            : UTF-8 Plain Text
  132. Duration                                 : 2 h 54 min
  133. Bit rate                                 : 59 b/s
  134. Count of elements                        : 1933
  135. Stream size                              : 76.3 KiB (0%)
  136. Title                                    : English-SDH-SRT
  137. Language                                 : English
  138. Default                                  : No
  139. Forced                                   : No
  140. Text #3
  141. ID                                       : 8
  142. Format                                   : PGS
  143. Muxing mode                              : zlib
  144. Codec ID                                 : S_HDMV/PGS
  145. Codec ID/Info                            : Picture based subtitle format used on BDs/HD-DVDs
  146. Duration                                 : 2 h 57 min
  147. Bit rate                                 : 35.5 kb/s
  148. Count of elements                        : 3396
  149. Stream size                              : 45.0 MiB (0%)
  150. Title                                    : English-PGS
  151. Language                                 : English
  152. Default                                  : No
  153. Forced                                   : No
  154. Text #4
  155. ID                                       : 9
  156. Format                                   : PGS
  157. Muxing mode                              : zlib
  158. Codec ID                                 : S_HDMV/PGS
  159. Codec ID/Info                            : Picture based subtitle format used on BDs/HD-DVDs
  160. Duration                                 : 3 h 1 min
  161. Bit rate                                 : 38.9 kb/s
  162. Count of elements                        : 3876
  163. Stream size                              : 50.5 MiB (0%)
  164. Title                                    : English-SDH-PGS
  165. Language                                 : English
  166. Default                                  : No
  167. Forced                                   : No
  168. Text #5
  169. ID                                       : 10
  170. Format                                   : PGS
  171. Muxing mode                              : zlib
  172. Codec ID                                 : S_HDMV/PGS
  173. Codec ID/Info                            : Picture based subtitle format used on BDs/HD-DVDs
  174. Duration                                 : 2 h 57 min
  175. Bit rate                                 : 33.5 kb/s
  176. Count of elements                        : 3608
  177. Stream size                              : 42.5 MiB (0%)
  178. Title                                    : Spanish-PGS
  179. Language                                 : Spanish
  180. Default                                  : No
  181. Forced                                   : No
  182. Text #6
  183. ID                                       : 11
  184. Format                                   : PGS
  185. Muxing mode                              : zlib
  186. Codec ID                                 : S_HDMV/PGS
  187. Codec ID/Info                            : Picture based subtitle format used on BDs/HD-DVDs
  188. Duration                                 : 2 h 57 min
  189. Bit rate                                 : 33.3 kb/s
  190. Count of elements                        : 3422
  191. Stream size                              : 42.3 MiB (0%)
  192. Title                                    : French-PGS
  193. Language                                 : French
  194. Default                                  : No
  195. Forced                                   : No
  196. Menu
  197. 00:00:00.000                             : en:Chapter 01
  198. 00:09:23.479                             : en:Chapter 02
  199. 00:20:22.638                             : en:Chapter 03
  200. 00:24:09.072                             : en:Chapter 04
  201. 00:31:13.329                             : en:Chapter 05
  202. 00:34:09.589                             : en:Chapter 06
  203. 00:45:01.240                             : en:Chapter 07
  204. 00:52:03.870                             : en:Chapter 08
  205. 01:03:18.878                             : en:Chapter 09
  206. 01:17:01.950                             : en:Chapter 10
  207. 01:23:44.436                             : en:Chapter 11
  208. 01:29:00.335                             : en:Chapter 12
  209. 01:38:47.129                             : en:Chapter 13
  210. 01:44:30.847                             : en:Chapter 14
  211. 02:13:24.204                             : en:Chapter 15
  212. 02:22:09.938                             : en:Chapter 16
  213. 02:31:03.929                             : en:Chapter 17
  214. 02:43:31.426                             : en:Chapter 18
  215. 02:50:32.388                             : en:Chapter 19
复制代码






                                       
                                       

                                       
                                       
                                       




现代启迪录/今世启迪录 Apocalypse.Now.1979.Final.Cut.1080p.BluRay.REMUX.AVC.DTS-HD.MA.TrueHD.7.1.Atmos-FGT 47.26GB

Apocalypse.Now.1979.Final.Cut.1080p.BluRay.REMUX.AVC.DTS-HD.MA.TrueHD.7.1.Atmos-.torrent

118.75 KB, 下载次数: 0, 下载积分: 蓝光币 -2

回复

使用道具 举报

懒得打字嘛,点击右侧快捷回复 【右侧内容,后台自定义】
您需要登录后才可以回帖 登录 | 立即加入

本版积分规则

Archiver|小黑屋| 蓝光电影网 |网站地图

Copyright © 2021 Comsenz Inc. Powered by 蓝光电影网

蓝光电影网

本站内容由用户自主分享和转载自互联网,转载目的在于传递更多信息,并不代表本网赞同其观点和对其真实性负责。

如有侵权、违反国家法律政策行为,请联系我们,我们会第一时间及时清除和处理!

举报反馈邮箱:[email protected]

快速回复 返回顶部 返回列表