找回密码

蓝光电影网

查看: 17|回复: 0

[剧情] 化为灰烬 Into.the.Ashes.2019.1080p.BluRay.REMUX.AVC.DTS-HD.MA.5.1-FGT 16.73GB

[复制链接]
蓝光币
515
发表于 2019-9-10 04:47:26 | 显示全部楼层 |阅读模式


◎译  名 化为灰烬 / Into the Ashes / Low Country / 付之成灰
◎片  名 Into the Ashes
◎年  代 2019
◎产  地 美国
◎类  别 剧情 / 悬疑 / 惊悚 / 犯罪
◎语  言 英语
◎上映日期 2019-07-19(美国)
◎IMDb链接  http://www.imdb.com/title/tt3138122
◎豆瓣评分 0/10 from 0 users
◎豆瓣链接 https://movie.douban.com/subject/28618944/
◎导  演 艾伦·哈维 Aaron Harvey
◎编  剧 艾伦·哈维 Aaron Harvey
◎主  演 弗兰克·格里罗 Frank Grillo
      玛格丽特·莫罗 Marguerite Moreau
      罗伯特·泰勒 Robert Taylor
      詹姆斯·戴尔 James Badge Dale
      卢克·葛莱姆斯 Luke Grimes
      布莱德利·史姑娘 Brady Smith
      大卫·马尔登那多 David Maldonado
      罗布·梅洛 Rob Mello
      杰夫·波普 Jeff Pope
      斯科特·皮特 Scott Peat
      Andrea Frankle
      Corey Thouviner
      David Cade
      Tony Scott
      Telvin Griffin

◎标  签 犯罪 | 美国电影 | 电影 | 惊悚 | 弗兰克·格里罗 | 卢克·葛莱姆斯 | 剧情 | 1080pWEBrip-RARBG
◎简  介  
  故事报告尼克(卢克·葛莱姆斯饰)刚刚出狱,他不能反面岳父(罗伯特·泰勒饰)缓和关系。但是他更要和一个将要损坏他生活的人(格里罗饰}打交道。
  1. Video
  2. ID                                       : 1
  3. Format                                   : AVC
  4. Format/Info                              : Advanced Video Codec
  5. Format profile                           : [email protected]
  6. Format settings                          : CABAC / 4 Ref Frames
  7. Format settings, CABAC                   : Yes
  8. Format settings, Reference frames        : 4 frames
  9. Codec ID                                 : V_MPEG4/ISO/AVC
  10. Duration                                 : 1 h 37 min
  11. Bit rate mode                            : Variable
  12. Bit rate                                 : 20.8 Mb/s
  13. Maximum bit rate                         : 31.0 Mb/s
  14. Width                                    : 1 920 pixels
  15. Height                                   : 1 080 pixels
  16. Display aspect ratio                     : 16:9
  17. Frame rate mode                          : Constant
  18. Frame rate                               : 23.976 (24000/1001) FPS
  19. Color space                              : YUV
  20. Chroma subsampling                       : 4:2:0
  21. Bit depth                                : 8 bits
  22. Scan type                                : Progressive
  23. Bits/(Pixel*Frame)                       : 0.418
  24. Stream size                              : 14.1 GiB (84%)
  25. Title                                    : Into.the.Ashes.2019.1080p.BluRay.REMUX.AVC.DTS-HD.MA.5.1-FGT
  26. Language                                 : English
  27. Default                                  : No
  28. Forced                                   : No
  29. Audio
  30. ID                                       : 2
  31. Format                                   : DTS XLL
  32. Format/Info                              : Digital Theater Systems
  33. Commercial name                          : DTS-HD Master Audio
  34. Codec ID                                 : A_DTS
  35. Duration                                 : 1 h 37 min
  36. Bit rate mode                            : Variable
  37. Bit rate                                 : 3 805 kb/s
  38. Channel(s)                               : 6 channels
  39. Channel layout                           : C L R Ls Rs LFE
  40. Sampling rate                            : 48.0 kHz
  41. Frame rate                               : 93.750 FPS (512 SPF)
  42. Bit depth                                : 24 bits
  43. Compression mode                         : Lossless
  44. Stream size                              : 2.59 GiB (15%)
  45. Title                                    : Into.the.Ashes.2019.1080p.BluRay.REMUX.AVC.DTS-HD.MA.5.1-FGT
  46. Language                                 : English
  47. Default                                  : Yes
  48. Forced                                   : No
  49. Text #1
  50. ID                                       : 3
  51. Format                                   : UTF-8
  52. Codec ID                                 : S_TEXT/UTF8
  53. Codec ID/Info                            : UTF-8 Plain Text
  54. Duration                                 : 1 h 30 min
  55. Bit rate                                 : 27 b/s
  56. Count of elements                        : 726
  57. Stream size                              : 18.3 KiB (0%)
  58. Title                                    : English-SRT
  59. Language                                 : English
  60. Default                                  : Yes
  61. Forced                                   : No
  62. Text #2
  63. ID                                       : 4
  64. Format                                   : PGS
  65. Muxing mode                              : zlib
  66. Codec ID                                 : S_HDMV/PGS
  67. Codec ID/Info                            : Picture based subtitle format used on BDs/HD-DVDs
  68. Duration                                 : 1 h 32 min
  69. Bit rate                                 : 15.3 kb/s
  70. Count of elements                        : 1858
  71. Stream size                              : 10.2 MiB (0%)
  72. Title                                    : English-PGS
  73. Language                                 : English
  74. Default                                  : No
  75. Forced                                   : No
  76. Text #3
  77. ID                                       : 5
  78. Format                                   : PGS
  79. Muxing mode                              : zlib
  80. Codec ID                                 : S_HDMV/PGS
  81. Codec ID/Info                            : Picture based subtitle format used on BDs/HD-DVDs
  82. Duration                                 : 1 h 35 min
  83. Bit rate                                 : 11.5 kb/s
  84. Count of elements                        : 1494
  85. Stream size                              : 7.90 MiB (0%)
  86. Title                                    : Spanish-PGS
  87. Language                                 : Spanish
  88. Default                                  : No
  89. Forced                                   : No
  90. Text #4
  91. ID                                       : 6
  92. Format                                   : PGS
  93. Muxing mode                              : zlib
  94. Codec ID                                 : S_HDMV/PGS
  95. Codec ID/Info                            : Picture based subtitle format used on BDs/HD-DVDs
  96. Duration                                 : 1 h 31 min
  97. Bit rate                                 : 12.0 kb/s
  98. Count of elements                        : 1450
  99. Stream size                              : 7.89 MiB (0%)
  100. Title                                    : French-PGS
  101. Language                                 : French
  102. Default                                  : No
  103. Forced                                   : No
  104. Menu
  105. 00:00:00.000                             : en:Chapter 01
  106. 00:11:06.749                             : en:Chapter 02
  107. 00:19:33.839                             : en:Chapter 03
  108. 00:32:26.361                             : en:Chapter 04
  109. 00:39:09.013                             : en:Chapter 05
  110. 00:52:27.060                             : en:Chapter 06
  111. 01:04:37.164                             : en:Chapter 07
  112. 01:33:14.505                             : en:Chapter 08
复制代码






                                       
                                       

                                       
                                       
                                       




回复

使用道具 举报

懒得打字嘛,点击右侧快捷回复 【右侧内容,后台自定义】
您需要登录后才可以回帖 登录 | 立即加入

本版积分规则

Archiver|小黑屋| 蓝光电影网 |网站地图

Copyright © 2021 Comsenz Inc. Powered by 蓝光电影网

蓝光电影网

本站内容由用户自主分享和转载自互联网,转载目的在于传递更多信息,并不代表本网赞同其观点和对其真实性负责。

如有侵权、违反国家法律政策行为,请联系我们,我们会第一时间及时清除和处理!

举报反馈邮箱:[email protected]

快速回复 返回顶部 返回列表