找回密码

蓝光电影网

查看: 25|回复: 0

[动作] 超能追缉/你我皆凡人 Mortal.2020.NORWEGIAN.1080p.US.BluRay.REMUX.AVC.DTS-HD.MA.5.1-FGT 28.59GB

[复制链接]
蓝光币
511
发表于 2020-11-6 10:08:24 | 显示全部楼层 |阅读模式


◎译  名 超能追缉/你我皆凡人/凡人/凡人烦人/超能追缉(台)
◎片  名 Mortal
◎年  代 2020
◎产  地 挪威,美国,英国
◎类  别 行动 / 奇异 / 冒险
◎语  言 挪威语,英语
◎上映日期 2020-02-28(挪威)
◎IMDb评分  5.7/10 from 2834 users
◎IMDb链接  https://www.imdb.com/title/tt5715066/
◎豆瓣评分 5.5/10 from 927 users
◎豆瓣链接 https://movie.douban.com/subject/26791681/
◎片  长 104分钟
◎导  演 安德烈·艾弗道夫 André ?vredal
◎编  剧 安德烈·艾弗道夫 André ?vredal
◎主  演 纳特·沃尔夫 Nat Wolff
       亚瑟·哈卡拉赫蒂 Arthur Hakalahti
       珀·埃吉尔·埃斯克 Per Egil Aske
       Per Frisch
       Slawomir Poplawski
◎标  签 奇异 | 挪威 | 科幻 | 2020 | 挪威电影 | 行动 | 电影 | 美国
◎简  介


  故事报告一位挪威裔奥秘男人,让碰到自己的少年忽然自燃,并被控谋杀罪名。在接管审问之前,一位心理医师惊人发现,他居然具有没法控制的超自然才能,而这股气力能够来自于北欧神话,因而她决议帮助这位奥秘男人逃狱,一同踏上寻觅真相的旅途。
  1. Video
  2. ID                                       : 1
  3. ID in the original source medium         : 4113 (0x1011)
  4. Format                                   : AVC
  5. Format/Info                              : Advanced Video Codec
  6. Format profile                           : [email protected]
  7. Format settings                          : CABAC / 4 Ref Frames
  8. Format settings, CABAC                   : Yes
  9. Format settings, Reference frames        : 4 frames
  10. Codec ID                                 : V_MPEG4/ISO/AVC
  11. Duration                                 : 1 h 44 min
  12. Bit rate mode                            : Variable
  13. Bit rate                                 : 35.0 Mb/s
  14. Maximum bit rate                         : 37.0 Mb/s
  15. Width                                    : 1 920 pixels
  16. Height                                   : 1 080 pixels
  17. Display aspect ratio                     : 16:9
  18. Frame rate mode                          : Constant
  19. Frame rate                               : 23.976 (24000/1001/189150) FPS
  20. Color space                              : YUV
  21. Chroma subsampling                       : 4:2:0
  22. Bit depth                                : 8 bits
  23. Scan type                                : Progressive
  24. Bits/(Pixel*Frame)                       : 0.704
  25. Stream size                              : 25.6 GiB (90%)
  26. Title                                    : Mortal.2020.NORWEGIAN.1080p.US.BluRay.REMUX.AVC.DTS-HD.MA.5.1-FGT
  27. Language                                 : Norwegian
  28. Default                                  : No
  29. Forced                                   : No
  30. Original source medium                   : Blu-ray
  31. Audio
  32. ID                                       : 2
  33. ID in the original source medium         : 4352 (0x1100)
  34. Format                                   : DTS XLL
  35. Format/Info                              : Digital Theater Systems
  36. Commercial name                          : DTS-HD Master Audio
  37. Codec ID                                 : A_DTS
  38. Duration                                 : 1 h 44 min
  39. Bit rate mode                            : Variable
  40. Bit rate                                 : 4 000 kb/s
  41. Channel(s)                               : 6 channels
  42. Channel layout                           : C L R Ls Rs LFE
  43. Sampling rate                            : 48.0 kHz
  44. Frame rate                               : 93.750 FPS (512 SPF)
  45. Bit depth                                : 24 bits
  46. Compression mode                         : Lossless
  47. Stream size                              : 2.93 GiB (10%)
  48. Title                                    : Mortal.2020.NORWEGIAN.1080p.US.BluRay.REMUX.AVC.DTS-HD.MA.5.1-FGT
  49. Language                                 : Norwegian
  50. Default                                  : Yes
  51. Forced                                   : No
  52. Original source medium                   : Blu-ray
  53. Text #1
  54. ID                                       : 3
  55. Format                                   : UTF-8
  56. Codec ID                                 : S_TEXT/UTF8
  57. Codec ID/Info                            : UTF-8 Plain Text
  58. Duration                                 : 1 h 28 min
  59. Bit rate                                 : 27 b/s
  60. Count of elements                        : 522
  61. Stream size                              : 17.7 KiB (0%)
  62. Title                                    : English-SRT
  63. Language                                 : English
  64. Default                                  : Yes
  65. Forced                                   : No
  66. Text #2
  67. ID                                       : 4
  68. ID in the original source medium         : 4608 (0x1200)
  69. Format                                   : PGS
  70. Muxing mode                              : zlib
  71. Codec ID                                 : S_HDMV/PGS
  72. Codec ID/Info                            : Picture based subtitle format used on BDs/HD-DVDs
  73. Duration                                 : 1 h 36 min
  74. Bit rate                                 : 19.8 kb/s
  75. Count of elements                        : 1288
  76. Stream size                              : 13.7 MiB (0%)
  77. Title                                    : English-PGS
  78. Language                                 : English
  79. Default                                  : No
  80. Forced                                   : No
  81. Original source medium                   : Blu-ray
  82. Text #3
  83. ID                                       : 5
  84. ID in the original source medium         : 4609 (0x1201)
  85. Format                                   : PGS
  86. Muxing mode                              : zlib
  87. Codec ID                                 : S_HDMV/PGS
  88. Codec ID/Info                            : Picture based subtitle format used on BDs/HD-DVDs
  89. Duration                                 : 1 h 36 min
  90. Bit rate                                 : 14.6 kb/s
  91. Count of elements                        : 972
  92. Stream size                              : 10.1 MiB (0%)
  93. Title                                    : Spanish-PGS
  94. Language                                 : Spanish
  95. Default                                  : No
  96. Forced                                   : No
  97. Original source medium                   : Blu-ray
  98. Text #4
  99. ID                                       : 6
  100. ID in the original source medium         : 4610 (0x1202)
  101. Format                                   : PGS
  102. Muxing mode                              : zlib
  103. Codec ID                                 : S_HDMV/PGS
  104. Codec ID/Info                            : Picture based subtitle format used on BDs/HD-DVDs
  105. Duration                                 : 1 h 28 min
  106. Bit rate                                 : 6 634 b/s
  107. Count of elements                        : 352
  108. Stream size                              : 4.22 MiB (0%)
  109. Title                                    : English-FORCED-PGS
  110. Language                                 : English
  111. Default                                  : No
  112. Forced                                   : No
  113. Original source medium                   : Blu-ray
  114. Text #5
  115. ID                                       : 7
  116. ID in the original source medium         : 4610 (0x1202)
  117. Format                                   : PGS
  118. Muxing mode                              : zlib
  119. Codec ID                                 : S_HDMV/PGS
  120. Codec ID/Info                            : Picture based subtitle format used on BDs/HD-DVDs
  121. Duration                                 : 1 h 28 min
  122. Bit rate                                 : 6 634 b/s
  123. Count of elements                        : 352
  124. Stream size                              : 4.22 MiB (0%)
  125. Title                                    : English-FORCED-PGS
  126. Language                                 : English
  127. Default                                  : No
  128. Forced                                   : No
  129. Original source medium                   : Blu-ray
  130. Menu
  131. 00:00:00.000                             : en:Chapter 01
  132. 00:06:45.279                             : en:Chapter 02
  133. 00:11:46.539                             : en:Chapter 03
  134. 00:15:19.793                             : en:Chapter 04
  135. 00:26:52.777                             : en:Chapter 05
  136. 00:34:49.170                             : en:Chapter 06
  137. 00:38:54.415                             : en:Chapter 07
  138. 00:42:14.698                             : en:Chapter 08
  139. 00:47:50.117                             : en:Chapter 09
  140. 00:51:39.554                             : en:Chapter 10
  141. 00:55:32.787                             : en:Chapter 11
  142. 01:06:38.119                             : en:Chapter 12
  143. 01:15:51.755                             : en:Chapter 13
  144. 01:20:12.557                             : en:Chapter 14
  145. 01:28:41.441                             : en:Chapter 15
  146. 01:34:51.394                             : en:Chapter 16
复制代码





                                       
                                       

                                       
                                       
                                       




回复

使用道具 举报

懒得打字嘛,点击右侧快捷回复 【右侧内容,后台自定义】
您需要登录后才可以回帖 登录 | 立即加入

本版积分规则

Archiver|小黑屋| 蓝光电影网 |网站地图

Copyright © 2021 Comsenz Inc. Powered by 蓝光电影网

蓝光电影网

本站内容由用户自主分享和转载自互联网,转载目的在于传递更多信息,并不代表本网赞同其观点和对其真实性负责。

如有侵权、违反国家法律政策行为,请联系我们,我们会第一时间及时清除和处理!

举报反馈邮箱:[email protected]

快速回复 返回顶部 返回列表