找回密码

蓝光电影网

查看: 20|回复: 0

[喜剧] 勇敢者游戏:决战丛林/勇敢者的游戏 Jumanji.Welcome.to.the.Jungle.2017.1080p.BluRay.x264.DTS-HD.MA.5.1-FGT 9.36GB

[复制链接]
蓝光币
515
发表于 2020-12-1 09:18:53 | 显示全部楼层 |阅读模式


◎译  名 勇敢者游戏:决战森林/勇敢者的游戏/新勇敢者的游戏/逃出魔幻纪:森林挑机(港)/蛮横游戏:疯狂森林(台)
◎片  名 Jumanji: Welcome to the Jungle
◎年  代 2017
◎产  地 美国,印度,加拿大,英国,澳大利亚,德国
◎类  别 笑剧 / 行动 / 奇异 / 冒险
◎语  言 英语
◎上映日期 2017-12-20(美国) / 2018-01-12(中国大陆)
◎IMDb评分  6.9/10 from 314465 users
◎IMDb链接  https://www.imdb.com/title/tt2283362/
◎豆瓣评分 6.9/10 from 173542 users
◎豆瓣链接 https://movie.douban.com/subject/26586766/
◎片  长 119分钟
◎导  演 杰克·卡斯丹 Jake Kasdan
◎编  剧 克里斯·麦克纳 Chris McKenna / 埃里克·萨默斯 Erik Sommers / 斯科特·罗森伯格 Scott Rosenberg / 杰夫·皮克纳 Jeff Pinkner / 克里斯·范·奥斯伯格 Chris Van Allsburg / 扎克·海尔姆 Zach Helm
◎主  演 道恩·强森 Dwayne Johnson
       凯文·哈特 Kevin Hart
       杰克·布莱克 Jack Black
       凯伦·吉兰 Karen Gillan
       尼克·乔纳斯 Nick Jonas
       瑞斯·达比 Rhys Darby
       鲍比·坎纳瓦尔 Bobby Cannavale
       亚历克斯·沃尔夫 Alex Wolff
       瑟达吕斯·布兰 Ser'Darius Blain
       麦迪森·伊瑟曼 Madison Iseman
       摩根·特纳 Morgan Turner
       梅森·古乔内 Mason Guccione
       马克·埃文·杰克逊 Marc Evan Jackson
       玛琳·辛科 Marin Hinkle
       特雷西·邦纳 Tracey Bonner
       玛莉贝丝·梦露 Maribeth Monroe
       米西·派勒 Missi Pyle
       杰米·雷内尔 Jamie Renell
       卡尔利斯·布克 Carlease Burke
       罗翰·昌德 Rohan Chand
       科林·汉克斯 Colin Hanks
◎标  签 冒险 | 美国 | 奇异 | 笑剧 | 搞笑 | 行动 | 科幻 | 游戏
◎简  介


  斯宾塞、“冰箱”弗里奇、贝瑟尼和玛莎是某高中的题目门生,这一日他们因分歧的毛病而被留校劳动。在一间堆满陈旧烧毁物的蕴藏室内,斯宾塞发现一台年月久远的游戏机。四人原本想轻松一下,谁知却被吸进了游戏机中。在凶恶的尤曼吉热带森林里,少男少女别离酿成了勇石博士(道恩·强森 Dwayne Johnson 饰)、毛子·芬巴(凯文·哈特 Kevin Hart 饰)、奥伯伦教授(杰克·布莱克 Jack Black 饰)和铁拳露比(凯伦·吉兰 Karen Gillan 饰),他们必须遵照游戏法则,冲破邪恶博士的阻止,将宝石放回原处,规复尤曼吉的战争,而这也是他们重返现实天下的唯一路子。
  
  毒蛇、猛兽以及纠缠不休的大盗,为四个玩家带来了永生难忘的冒险体验……
◎获奖情况
  第27届MTV电影奖 ?(2018)
  MTV电影奖最好笑剧表演(提名) 杰克·布莱克
  MTV电影奖最好银幕组合(提名) 凯伦·吉兰?/?尼克·乔纳斯?/?凯文·哈特?/?道恩·强森?/?杰克·布莱克
  
  第5届豆瓣电影年度榜单 ?(2018)
  评分最高的科幻/行动片(提名)
  1. Video
  2. ID                                       : 1
  3. Format                                   : AVC
  4. Format/Info                              : Advanced Video Codec
  5. Format profile                           : [email protected]
  6. Format settings                          : CABAC / 5 Ref Frames
  7. Format settings, CABAC                   : Yes
  8. Format settings, ReFrames                : 5 frames
  9. Codec ID                                 : V_MPEG4/ISO/AVC
  10. Duration                                 : 1 h 59 min
  11. Bit rate                                 : 9 007 kb/s
  12. Width                                    : 1 920 pixels
  13. Height                                   : 800 pixels
  14. Display aspect ratio                     : 2.40:1
  15. Frame rate mode                          : Constant
  16. Frame rate                               : 23.976 (24000/1001/189150) FPS
  17. Color space                              : YUV
  18. Chroma subsampling                       : 4:2:0
  19. Bit depth                                : 8 bits
  20. Scan type                                : Progressive
  21. Bits/(Pixel*Frame)                       : 0.245
  22. Stream size                              : 7.49 GiB (80%)
  23. Title                                    : Jumanji.Welcome.to.the.Jungle.2017.1080p.BluRay.x264.DTS-HD.MA.5.1-FGT
  24. Writing library                          : x264 core 155 r2901 7d0ff22
  25. Encoding settings                        : cabac=1 / ref=5 / deblock=1:-3:-3 / analyse=0x3:0x133 / me=umh / subme=8 / psy=1 / psy_rd=1.00:0.00 / mixed_ref=1 / me_range=16 / chroma_me=1 / trellis=1 / 8x8dct=1 / cqm=0 / deadzone=21,11 / fast_pskip=0 / chroma_qp_offset=-2 / threads=25 / lookahead_threads=4 / sliced_threads=0 / nr=0 / decimate=1 / interlaced=0 / bluray_compat=0 / constrained_intra=0 / bframes=3 / b_pyramid=2 / b_adapt=1 / b_bias=0 / direct=3 / weightb=1 / open_gop=0 / weightp=2 / keyint=250 / keyint_min=23 / scenecut=40 / intra_refresh=0 / rc_lookahead=50 / rc=2pass / mbtree=1 / bitrate=9007 / ratetol=1.0 / qcomp=0.60 / qpmin=0 / qpmax=69 / qpstep=4 / cplxblur=20.0 / qblur=0.5 / vbv_maxrate=62500 / vbv_bufsize=78125 / nal_hrd=none / filler=0 / ip_ratio=1.40 / aq=1:1.00
  26. Default                                  : Yes
  27. Forced                                   : No
  28. Audio
  29. ID                                       : 2
  30. Format                                   : DTS
  31. Format/Info                              : Digital Theater Systems
  32. Format profile                           : MA / Core
  33. Codec ID                                 : A_DTS
  34. Duration                                 : 1 h 59 min
  35. Bit rate mode                            : Variable / Constant
  36. Bit rate                                 : 2 249 kb/s / 1 509 kb/s
  37. Channel(s)                               : 6 channels
  38. Channel positions                        : Front: L C R, Side: L R, LFE
  39. Sampling rate                            : 48.0 kHz
  40. Frame rate                               : 93.750 FPS (512 SPF)
  41. Bit depth                                : 16 bits
  42. Compression mode                         : Lossless / Lossy
  43. Stream size                              : 1.87 GiB (20%)
  44. Title                                    : Jumanji.Welcome.to.the.Jungle.2017.1080p.BluRay.x264.DTS-HD.MA.5.1-FGT
  45. Language                                 : English
  46. Default                                  : Yes
  47. Forced                                   : No
  48. Text
  49. ID                                       : 3
  50. Format                                   : UTF-8
  51. Codec ID                                 : S_TEXT/UTF8
  52. Codec ID/Info                            : UTF-8 Plain Text
  53. Duration                                 : 1 h 48 min
  54. Bit rate                                 : 64 b/s
  55. Count of elements                        : 1526
  56. Stream size                              : 51.7 KiB (0%)
  57. Title                                    : English-SRT
  58. Language                                 : English
  59. Default                                  : Yes
  60. Forced                                   : No
  61. Menu
  62. 00:00:00.000                             : en:00:00:00.000
  63. 00:07:18.104                             : en:00:07:18.104
  64. 00:17:15.993                             : en:00:17:15.993
  65. 00:23:23.235                             : en:00:23:23.235
  66. 00:29:24.972                             : en:00:29:24.972
  67. 00:42:28.546                             : en:00:42:28.546
  68. 00:47:11.162                             : en:00:47:11.162
  69. 00:54:26.722                             : en:00:54:26.722
  70. 01:03:20.839                             : en:01:03:20.839
  71. 01:10:21.801                             : en:01:10:21.801
  72. 01:15:51.672                             : en:01:15:51.672
  73. 01:24:10.087                             : en:01:24:10.087
  74. 01:28:20.295                             : en:01:28:20.295
  75. 01:33:48.414                             : en:01:33:48.414
  76. 01:42:22.887                             : en:01:42:22.887
  77. 01:48:31.839                             : en:01:48:31.839
复制代码






                                       
                                       

                                       
                                       
                                       




回复

使用道具 举报

懒得打字嘛,点击右侧快捷回复 【右侧内容,后台自定义】
您需要登录后才可以回帖 登录 | 立即加入

本版积分规则

Archiver|小黑屋| 蓝光电影网 |网站地图

Copyright © 2021 Comsenz Inc. Powered by 蓝光电影网

蓝光电影网

本站内容由用户自主分享和转载自互联网,转载目的在于传递更多信息,并不代表本网赞同其观点和对其真实性负责。

如有侵权、违反国家法律政策行为,请联系我们,我们会第一时间及时清除和处理!

举报反馈邮箱:[email protected]

快速回复 返回顶部 返回列表