找回密码

蓝光电影网

查看: 57|回复: 0

[动作] 攻壳机动队 Ghost.in.the.Shell.1995.JAPANESE.1080p.US.BluRay.REMUX.AVC.DTS-HD.MA.TrueHD.7.1.Atmos-FGT 27.29GB

[复制链接]
蓝光币
515
发表于 2020-9-26 20:29:45 | 显示全部楼层 |阅读模式


◎译  名 攻壳灵活队/Ghost in the Shell
◎片  名 攻殻機動隊
◎年  代 1995
◎产  地 日本
◎类  别 行动 / 科幻 / 动画
◎语  言 日语
◎上映日期 1995-11-18(日本)
◎IMDb评分  8/10 from 126006 users
◎IMDb链接  https://www.imdb.com/title/tt0113568/
◎豆瓣评分 9.0/10 from 99166 users
◎豆瓣链接 https://movie.douban.com/subject/1291936/
◎片  长 83分钟
◎导  演 押井守 Mamoru Oshii
◎编  剧 伊藤和典 Kazunori It? / 士郎正宗 Masamune Shirow
◎主  演 田中敦子 Atsuko Tanaka
       大塚明夫 Akio ?tsuka
       山寺宏一 K?ichi Yamadera
       大木民夫 Tamio ?ki
       家弓家正 Iemasa Kayumi
       玄田哲章 Tessh? Genda
       山内雅人 Masato Yamanouchi
       小川真司 Shinji Ogawa
       宫本充 Mitsuru Miyamoto
       小高三良 Odaka Sanryou
       后藤敦 Gotou Atsushi
       山路和弘 Kazuhiro Yamaji
       佐藤政道 Masamichi Sat?
       Lia Sargent
       布莱恩·科兰斯顿 Bryan Cranston
       松山鹰志 Takashi Matsuyama
◎标  签 科幻 | 动画 | 日本 | 押井守 | 攻壳灵活队 | 日本动画 | 动漫 | 1995
◎简  介


  公元2029年,未来天下是高科技与信息化的天下。人类生死水平的进步陪伴着犯罪活动的高科技化,因而,专门弹压高科技犯罪的特别军队——公安9课建立了。队长草薙素子,作为一位满身“义体化”的女警,率领公安9课不竭展开行动。
  
  是次,公安9课帮助公安6课奥秘处理了一位法式员外逃他国的麻烦杂事,又卷入传闻中的黑客“傀儡师”的犯罪事务。当行动堕入僵局之际,傀儡师居然不速之客,出现在公安9课!素子与她的战友们,不知不觉地被卷入了一场触及政府的诡计当中。
  1. Video
  2. ID                                       : 1
  3. ID in the original source medium         : 4113 (0x1011)
  4. Format                                   : AVC
  5. Format/Info                              : Advanced Video Codec
  6. Format profile                           : [email protected]
  7. Format settings                          : CABAC / 4 Ref Frames
  8. Format settings, CABAC                   : Yes
  9. Format settings, Reference frames        : 4 frames
  10. Codec ID                                 : V_MPEG4/ISO/AVC
  11. Duration                                 : 1 h 22 min
  12. Bit rate mode                            : Variable
  13. Bit rate                                 : 24.9 Mb/s
  14. Maximum bit rate                         : 27.0 Mb/s
  15. Width                                    : 1 920 pixels
  16. Height                                   : 1 080 pixels
  17. Display aspect ratio                     : 16:9
  18. Frame rate mode                          : Constant
  19. Frame rate                               : 23.976 (24000/1001/189150) FPS
  20. Color space                              : YUV
  21. Chroma subsampling                       : 4:2:0
  22. Bit depth                                : 8 bits
  23. Scan type                                : Progressive
  24. Bits/(Pixel*Frame)                       : 0.501
  25. Stream size                              : 14.4 GiB (53%)
  26. Title                                    : Ghost.in.the.Shell.1995.JAPANESE.1080p.USA.BluRay.REMUX.AVC.DTS-HD.MA.TrueHD.7.1.Atmos-FGT
  27. Language                                 : English
  28. Default                                  : No
  29. Forced                                   : No
  30. Original source medium                   : Blu-ray
  31. Audio #1
  32. ID                                       : 2
  33. ID in the original source medium         : 4353 (0x1101)
  34. Format                                   : MLP FBA 16-ch
  35. Format/Info                              : Meridian Lossless Packing FBA with 16-channel presentation
  36. Commercial name                          : Dolby TrueHD with Dolby Atmos
  37. Codec ID                                 : A_TRUEHD
  38. Duration                                 : 1 h 22 min
  39. Bit rate mode                            : Variable
  40. Bit rate                                 : 4 156 kb/s
  41. Maximum bit rate                         : 6 606 kb/s
  42. Channel(s)                               : 8 channels
  43. Channel layout                           : L R C LFE Ls Rs Lb Rb
  44. Sampling rate                            : 48.0 kHz
  45. Frame rate                               : 1 200.000 FPS (40 SPF)
  46. Compression mode                         : Lossless
  47. Stream size                              : 2.40 GiB (9%)
  48. Title                                    : Ghost.in.the.Shell.1995.JAPANESE.1080p.USA.BluRay.REMUX.AVC.DTS-HD.MA.TrueHD.7.1.Atmos-FGT
  49. Language                                 : Japanese
  50. Default                                  : Yes
  51. Forced                                   : No
  52. Original source medium                   : Blu-ray
  53. Number of dynamic objects                : 11
  54. Bed channel count                        : 1 channel
  55. Bed channel configuration                : LFE
  56. Audio #2
  57. ID                                       : 3
  58. Format                                   : DTS XLL
  59. Format/Info                              : Digital Theater Systems
  60. Commercial name                          : DTS-HD Master Audio
  61. Codec ID                                 : A_DTS
  62. Duration                                 : 1 h 22 min
  63. Bit rate mode                            : Variable
  64. Bit rate                                 : 4 443 kb/s
  65. Channel(s)                               : 8 channels
  66. Channel layout                           : C L R LFE Lb Rb Lss Rss
  67. Sampling rate                            : 48.0 kHz
  68. Frame rate                               : 93.750 FPS (512 SPF)
  69. Bit depth                                : 24 bits
  70. Compression mode                         : Lossless
  71. Stream size                              : 2.57 GiB (9%)
  72. Title                                    : Ghost.in.the.Shell.1995.JAPANESE.1080p.USA.BluRay.REMUX.AVC.DTS-HD.MA.TrueHD.7.1.Atmos-FGT
  73. Language                                 : Japanese
  74. Default                                  : No
  75. Forced                                   : No
  76. Audio #3
  77. ID                                       : 4
  78. ID in the original source medium         : 4353 (0x1101)
  79. Format                                   : AC-3
  80. Format/Info                              : Audio Coding 3
  81. Commercial name                          : Dolby Digital
  82. Codec ID                                 : A_AC3
  83. Duration                                 : 1 h 22 min
  84. Bit rate mode                            : Constant
  85. Bit rate                                 : 640 kb/s
  86. Channel(s)                               : 6 channels
  87. Channel layout                           : L R C LFE Ls Rs
  88. Sampling rate                            : 48.0 kHz
  89. Frame rate                               : 31.250 FPS (1536 SPF)
  90. Compression mode                         : Lossy
  91. Stream size                              : 378 MiB (1%)
  92. Title                                    : Ghost.in.the.Shell.1995.JAPANESE.1080p.USA.BluRay.REMUX.AVC.DTS-HD.MA.TrueHD.7.1.Atmos-FGT
  93. Language                                 : Japanese
  94. Service kind                             : Complete Main
  95. Default                                  : No
  96. Forced                                   : No
  97. Original source medium                   : Blu-ray
  98. Audio #4
  99. ID                                       : 5
  100. ID in the original source medium         : 4352 (0x1100)
  101. Format                                   : MLP FBA 16-ch
  102. Format/Info                              : Meridian Lossless Packing FBA with 16-channel presentation
  103. Commercial name                          : Dolby TrueHD with Dolby Atmos
  104. Codec ID                                 : A_TRUEHD
  105. Duration                                 : 1 h 22 min
  106. Bit rate mode                            : Variable
  107. Bit rate                                 : 4 432 kb/s
  108. Maximum bit rate                         : 6 612 kb/s
  109. Channel(s)                               : 8 channels
  110. Channel layout                           : L R C LFE Ls Rs Lb Rb
  111. Sampling rate                            : 48.0 kHz
  112. Frame rate                               : 1 200.000 FPS (40 SPF)
  113. Compression mode                         : Lossless
  114. Stream size                              : 2.56 GiB (9%)
  115. Title                                    : Ghost.in.the.Shell.1995.JAPANESE.1080p.USA.BluRay.REMUX.AVC.DTS-HD.MA.TrueHD.7.1.Atmos-FGT
  116. Language                                 : English
  117. Default                                  : No
  118. Forced                                   : No
  119. Original source medium                   : Blu-ray
  120. Number of dynamic objects                : 11
  121. Bed channel count                        : 1 channel
  122. Bed channel configuration                : LFE
  123. Audio #5
  124. ID                                       : 6
  125. ID in the original source medium         : 4352 (0x1100)
  126. Format                                   : AC-3
  127. Format/Info                              : Audio Coding 3
  128. Commercial name                          : Dolby Digital
  129. Codec ID                                 : A_AC3
  130. Duration                                 : 1 h 22 min
  131. Bit rate mode                            : Constant
  132. Bit rate                                 : 640 kb/s
  133. Channel(s)                               : 6 channels
  134. Channel layout                           : L R C LFE Ls Rs
  135. Sampling rate                            : 48.0 kHz
  136. Frame rate                               : 31.250 FPS (1536 SPF)
  137. Compression mode                         : Lossy
  138. Stream size                              : 378 MiB (1%)
  139. Title                                    : Ghost.in.the.Shell.1995.JAPANESE.1080p.USA.BluRay.REMUX.AVC.DTS-HD.MA.TrueHD.7.1.Atmos-FGT
  140. Language                                 : English
  141. Service kind                             : Complete Main
  142. Default                                  : No
  143. Forced                                   : No
  144. Original source medium                   : Blu-ray
  145. Audio #6
  146. ID                                       : 7
  147. Format                                   : DTS XLL
  148. Format/Info                              : Digital Theater Systems
  149. Commercial name                          : DTS-HD Master Audio
  150. Codec ID                                 : A_DTS
  151. Duration                                 : 1 h 22 min
  152. Bit rate mode                            : Variable
  153. Bit rate                                 : 4 262 kb/s
  154. Channel(s)                               : 8 channels
  155. Channel layout                           : C L R LFE Lb Rb Lss Rss
  156. Sampling rate                            : 48.0 kHz
  157. Frame rate                               : 93.750 FPS (512 SPF)
  158. Bit depth                                : 24 bits
  159. Compression mode                         : Lossless
  160. Stream size                              : 2.46 GiB (9%)
  161. Title                                    : Ghost.in.the.Shell.1995.JAPANESE.1080p.USA.BluRay.REMUX.AVC.DTS-HD.MA.TrueHD.7.1.Atmos-FGT
  162. Language                                 : English
  163. Default                                  : No
  164. Forced                                   : No
  165. Audio #7
  166. ID                                       : 8
  167. ID in the original source medium         : 4352 (0x1100)
  168. Format                                   : AC-3
  169. Format/Info                              : Audio Coding 3
  170. Commercial name                          : Dolby Digital
  171. Codec ID                                 : A_AC3
  172. Duration                                 : 1 h 22 min
  173. Bit rate mode                            : Constant
  174. Bit rate                                 : 640 kb/s
  175. Channel(s)                               : 6 channels
  176. Channel layout                           : L R C LFE Ls Rs
  177. Sampling rate                            : 48.0 kHz
  178. Frame rate                               : 31.250 FPS (1536 SPF)
  179. Compression mode                         : Lossy
  180. Stream size                              : 378 MiB (1%)
  181. Title                                    : Ghost.in.the.Shell.1995.JAPANESE.1080p.USA.BluRay.REMUX.AVC.DTS-HD.MA.TrueHD.7.1.Atmos-FGT
  182. Language                                 : English
  183. Service kind                             : Complete Main
  184. Default                                  : No
  185. Forced                                   : No
  186. Original source medium                   : Blu-ray
  187. Audio #8
  188. ID                                       : 9
  189. ID in the original source medium         : 4354 (0x1102)
  190. Format                                   : PCM
  191. Format settings                          : Little / Signed
  192. Codec ID                                 : A_PCM/INT/LIT
  193. Duration                                 : 1 h 22 min
  194. Bit rate mode                            : Constant
  195. Bit rate                                 : 2 304 kb/s
  196. Channel(s)                               : 2 channels
  197. Sampling rate                            : 48.0 kHz
  198. Frame rate                               : 30.000 FPS (1600 SPF)
  199. Bit depth                                : 24 bits
  200. Stream size                              : 1.33 GiB (5%)
  201. Title                                    : Ghost.in.the.Shell.1995.JAPANESE.1080p.USA.BluRay.REMUX.AVC.DTS-HD.MA.TrueHD.7.1.Atmos-FGT
  202. Language                                 : Japanese
  203. Default                                  : No
  204. Forced                                   : No
  205. Original source medium                   : Blu-ray
  206. Audio #9
  207. ID                                       : 10
  208. ID in the original source medium         : 4355 (0x1103)
  209. Format                                   : AC-3
  210. Format/Info                              : Audio Coding 3
  211. Commercial name                          : Dolby Digital
  212. Codec ID                                 : A_AC3
  213. Duration                                 : 1 h 22 min
  214. Bit rate mode                            : Constant
  215. Bit rate                                 : 448 kb/s
  216. Channel(s)                               : 6 channels
  217. Channel layout                           : L R C LFE Ls Rs
  218. Sampling rate                            : 48.0 kHz
  219. Frame rate                               : 31.250 FPS (1536 SPF)
  220. Compression mode                         : Lossy
  221. Stream size                              : 265 MiB (1%)
  222. Title                                    : Ghost.in.the.Shell.1995.JAPANESE.1080p.USA.BluRay.REMUX.AVC.DTS-HD.MA.TrueHD.7.1.Atmos-FGT
  223. Language                                 : English
  224. Service kind                             : Complete Main
  225. Default                                  : No
  226. Forced                                   : No
  227. Original source medium                   : Blu-ray
  228. Audio #10
  229. ID                                       : 11
  230. ID in the original source medium         : 4356 (0x1104)
  231. Format                                   : AC-3
  232. Format/Info                              : Audio Coding 3
  233. Commercial name                          : Dolby Digital
  234. Codec ID                                 : A_AC3
  235. Duration                                 : 1 h 22 min
  236. Bit rate mode                            : Constant
  237. Bit rate                                 : 192 kb/s
  238. Channel(s)                               : 2 channels
  239. Channel layout                           : L R
  240. Sampling rate                            : 48.0 kHz
  241. Frame rate                               : 31.250 FPS (1536 SPF)
  242. Compression mode                         : Lossy
  243. Stream size                              : 114 MiB (0%)
  244. Title                                    : Ghost.in.the.Shell.1995.JAPANESE.1080p.USA.BluRay.REMUX.AVC.DTS-HD.MA.TrueHD.7.1.Atmos-FGT
  245. Language                                 : English
  246. Service kind                             : Complete Main
  247. Default                                  : No
  248. Forced                                   : No
  249. Original source medium                   : Blu-ray
  250. Text #1
  251. ID                                       : 12
  252. Format                                   : UTF-8
  253. Codec ID                                 : S_TEXT/UTF8
  254. Codec ID/Info                            : UTF-8 Plain Text
  255. Duration                                 : 1 h 17 min
  256. Bit rate                                 : 69 b/s
  257. Count of elements                        : 880
  258. Stream size                              : 39.3 KiB (0%)
  259. Title                                    : English-SRT
  260. Language                                 : English
  261. Default                                  : Yes
  262. Forced                                   : No
  263. Text #2
  264. ID                                       : 13
  265. Format                                   : UTF-8
  266. Codec ID                                 : S_TEXT/UTF8
  267. Codec ID/Info                            : UTF-8 Plain Text
  268. Duration                                 : 14 s 462 ms
  269. Bit rate                                 : 108 b/s
  270. Count of elements                        : 4
  271. Stream size                              : 196 Bytes (0%)
  272. Title                                    : English-FORCED-SRT
  273. Language                                 : English
  274. Default                                  : No
  275. Forced                                   : No
  276. Text #3
  277. ID                                       : 14
  278. ID in the original source medium         : 4611 (0x1203)
  279. Format                                   : PGS
  280. Muxing mode                              : zlib
  281. Codec ID                                 : S_HDMV/PGS
  282. Codec ID/Info                            : Picture based subtitle format used on BDs/HD-DVDs
  283. Duration                                 : 1 h 17 min
  284. Bit rate                                 : 36.1 kb/s
  285. Count of elements                        : 1538
  286. Stream size                              : 20.0 MiB (0%)
  287. Title                                    : English-PGS
  288. Language                                 : English
  289. Default                                  : No
  290. Forced                                   : No
  291. Original source medium                   : Blu-ray
  292. Text #4
  293. ID                                       : 15
  294. ID in the original source medium         : 4611 (0x1203)
  295. Format                                   : PGS
  296. Muxing mode                              : zlib
  297. Codec ID                                 : S_HDMV/PGS
  298. Codec ID/Info                            : Picture based subtitle format used on BDs/HD-DVDs
  299. Duration                                 : 14 s 494 ms
  300. Bit rate                                 : 66.3 kb/s
  301. Count of elements                        : 8
  302. Stream size                              : 117 KiB (0%)
  303. Title                                    : English-FORCED-PGS
  304. Language                                 : English
  305. Default                                  : No
  306. Forced                                   : No
  307. Original source medium                   : Blu-ray
  308. Text #5
  309. ID                                       : 16
  310. ID in the original source medium         : 4612 (0x1204)
  311. Format                                   : PGS
  312. Muxing mode                              : zlib
  313. Codec ID                                 : S_HDMV/PGS
  314. Codec ID/Info                            : Picture based subtitle format used on BDs/HD-DVDs
  315. Duration                                 : 1 h 22 min
  316. Bit rate                                 : 33.5 kb/s
  317. Count of elements                        : 1548
  318. Stream size                              : 19.7 MiB (0%)
  319. Title                                    : Spanish-PGS
  320. Language                                 : Spanish
  321. Default                                  : No
  322. Forced                                   : No
  323. Original source medium                   : Blu-ray
  324. Text #6
  325. ID                                       : 17
  326. ID in the original source medium         : 4612 (0x1204)
  327. Format                                   : PGS
  328. Muxing mode                              : zlib
  329. Codec ID                                 : S_HDMV/PGS
  330. Codec ID/Info                            : Picture based subtitle format used on BDs/HD-DVDs
  331. Duration                                 : 14 s 494 ms
  332. Bit rate                                 : 71.9 kb/s
  333. Count of elements                        : 8
  334. Stream size                              : 127 KiB (0%)
  335. Title                                    : Spanish-FORCED-PGS
  336. Language                                 : Spanish
  337. Default                                  : No
  338. Forced                                   : No
  339. Original source medium                   : Blu-ray
  340. Text #7
  341. ID                                       : 18
  342. ID in the original source medium         : 4613 (0x1205)
  343. Format                                   : PGS
  344. Muxing mode                              : zlib
  345. Codec ID                                 : S_HDMV/PGS
  346. Codec ID/Info                            : Picture based subtitle format used on BDs/HD-DVDs
  347. Duration                                 : 1 h 17 min
  348. Bit rate                                 : 41.1 kb/s
  349. Count of elements                        : 1890
  350. Stream size                              : 22.9 MiB (0%)
  351. Title                                    : English-PGS
  352. Language                                 : English
  353. Default                                  : No
  354. Forced                                   : No
  355. Original source medium                   : Blu-ray
  356. Text #8
  357. ID                                       : 19
  358. ID in the original source medium         : 4613 (0x1205)
  359. Format                                   : PGS
  360. Muxing mode                              : zlib
  361. Codec ID                                 : S_HDMV/PGS
  362. Codec ID/Info                            : Picture based subtitle format used on BDs/HD-DVDs
  363. Duration                                 : 14 s 494 ms
  364. Bit rate                                 : 66.3 kb/s
  365. Count of elements                        : 8
  366. Stream size                              : 117 KiB (0%)
  367. Title                                    : English-FORCED-PGS
  368. Language                                 : English
  369. Default                                  : No
  370. Forced                                   : No
  371. Original source medium                   : Blu-ray
  372. Menu
  373. 00:00:00.000                             : en:Chapter 01
  374. 00:04:05.161                             : en:Chapter 02
  375. 00:08:23.628                             : en:Chapter 03
  376. 00:13:14.293                             : en:Chapter 04
  377. 00:24:16.746                             : en:Chapter 05
  378. 00:26:04.104                             : en:Chapter 06
  379. 00:27:39.199                             : en:Chapter 07
  380. 00:33:02.021                             : en:Chapter 08
  381. 00:36:20.553                             : en:Chapter 09
  382. 00:45:31.395                             : en:Chapter 10
  383. 00:53:58.526                             : en:Chapter 11
  384. 00:59:39.492                             : en:Chapter 12
  385. 01:06:23.396                             : en:Chapter 13
  386. 01:13:58.851                             : en:Chapter 14
  387. 01:17:30.479                             : en:Chapter 15
  388. 01:22:37.953                             : en:Chapter 16
复制代码






                                       
                                       

                                       
                                       
                                       




攻壳灵活队 Ghost.in.the.Shell.1995.JAPANESE.1080p.US.BluRay.REMUX.AVC.DTS-HD.MA.TrueHD.7.1.Atmos-FGT 27.29GB

Ghost.in.the.Shell.1995.JAPANESE.1080p.US.BluRay.REMUX.AVC.DTS-HD.MA.TrueHD.7.1..zip

69.78 KB, 下载次数: 0, 下载积分: 蓝光币 -2

回复

使用道具 举报

懒得打字嘛,点击右侧快捷回复 【右侧内容,后台自定义】
您需要登录后才可以回帖 登录 | 立即加入

本版积分规则

Archiver|小黑屋| 蓝光电影网 |网站地图

Copyright © 2021 Comsenz Inc. Powered by 蓝光电影网

蓝光电影网

本站内容由用户自主分享和转载自互联网,转载目的在于传递更多信息,并不代表本网赞同其观点和对其真实性负责。

如有侵权、违反国家法律政策行为,请联系我们,我们会第一时间及时清除和处理!

举报反馈邮箱:[email protected]

快速回复 返回顶部 返回列表