找回密码

蓝光电影网

查看: 17|回复: 0

[动作] 火影忍者疾风传剧场版:羁绊 Naruto.The.Movie.2.Bonds.2008.PROPER.1080p.BluRay.x264-SONiDO 5.46GB

[复制链接]
蓝光币
519
发表于 2019-8-8 20:54:42 | 显示全部楼层 |阅读模式
[img]https://img1.doubanio.com/view/photo/l_ratio_poster/public/p699505407.jpg[img]
◎译  名 火影忍者疾风传戏院版:拘束 / Gekij? ban Naruto: Shipp?den 08 / Movie Naruto Shipp?den Kizuna / 火影忍者疾风传戏院版 拘束 / 火影忍者疾风传戏院版:绊
◎片  名 劇場版 NARUTO -ナルト- 疾風伝 絆
◎年  代 2008
◎产  地 日本
◎类  别 行动 / 动画 / 奇异
◎语  言 日语
◎上映日期 2008-08-02
◎IMDb评分  7.1/10 from 3156 users
◎IMDb链接  http://www.imdb.com/title/tt1160524
◎豆瓣评分 7.1/10 from 8022 users
◎豆瓣链接 https://movie.douban.com/subject/2369613/
◎片  长 93 分钟
◎导  演 龟垣一 Hajime Kamegaki
◎编  剧 武上纯希 Junki Takegami / 岸本齐史 Masashi Kishimoto
◎主  演 竹内顺子 Junko Takeuchi
       中村千绘 Chie Nakamura
       杉山纪彰 Noriaki Sugiyama
       石冢运升 Unsh? Ishizuka
       熊井统子 Motoko Kumai
       井上和彦 Kazuhiko Inoue
       小山力也 Rikiya Koyama
       森久保祥太郎 Shotaro Morikubo
       水树奈奈 Nana Mizuki
       日野聪 Satoshi Hino
       川田绅司 Shinji Kawada
       伊藤健太郎 Kentar? It?
       远近孝一 K?ichi T?chika
       底子圭子 Keiko Nemoto
       远藤纯一
       藤吉浩二
       兴津和幸 Kazuyuki Okitsu
       松本和香子 Kujira
       神奈延年 Nobutoshi Canna
       胜生真沙子 Masako Katsuki
       大塚芳忠 H?ch? ?tsuka

◎标  签 火影忍者 | 戏院版 | 日本 | 动画 | 动漫 | 日本动画 | 2008 | 疾風傳
◎简  介  
  某日,一群利用风遁之术的空忍空袭火之国,无数公众和忍者遇害,情势危机。据纲手大人所言,这群不速之客正是在第二次忍者大战中落败的空之团,现在他们怀着复仇之心再次出现。卡卡西(井上和彦 配音)等人则负责侦察空之团的老巢,鸣人(竹内顺子 配音)、小樱(中村千绘 配音)、雏田(水樹奈々 配音)受命组成三人医疗小队,辅佐名医神农(石塚運昇 配音)前往其徒弟雨琉的故乡治疗伤者。另一方面,不成救药的大蛇丸得知神农的再生之术业已完成,他命佐助(杉山纪彰 配音)前往寻觅神农。这也促进佐助和昔日伙伴宿命的重逢……
  本片为《火影忍者》第五部戏院版动画。
  1. Video
  2. ID                                       : 1
  3. Format                                   : AVC
  4. Format/Info                              : Advanced Video Codec
  5. Format profile                           : [email protected]
  6. Format settings                          : CABAC / 4 Ref Frames
  7. Format settings, CABAC                   : Yes
  8. Format settings, Reference frames        : 4 frames
  9. Codec ID                                 : V_MPEG4/ISO/AVC
  10. Duration                                 : 1 h 38 min
  11. Bit rate                                 : 5 480 kb/s
  12. Nominal bit rate                         : 5 954 kb/s
  13. Width                                    : 1 920 pixels
  14. Height                                   : 1 040 pixels
  15. Display aspect ratio                     : 1.85:1
  16. Frame rate mode                          : Constant
  17. Frame rate                               : 23.976 (23976/1000) FPS
  18. Color space                              : YUV
  19. Chroma subsampling                       : 4:2:0
  20. Bit depth                                : 8 bits
  21. Scan type                                : Progressive
  22. Bits/(Pixel*Frame)                       : 0.114
  23. Stream size                              : 3.78 GiB (69%)
  24. Writing library                          : x264 core 122 r2184 5c85e0a
  25. Encoding settings                        : cabac=1 / ref=4 / deblock=1:0:0 / analyse=0x3:0x133 / me=umh / subme=7 / psy=1 / psy_rd=1.00:0.00 / mixed_ref=1 / me_range=16 / chroma_me=1 / trellis=1 / 8x8dct=1 / cqm=0 / deadzone=21,11 / fast_pskip=0 / chroma_qp_offset=-2 / threads=12 / sliced_threads=0 / nr=0 / decimate=1 / interlaced=0 / bluray_compat=0 / constrained_intra=0 / bframes=3 / b_pyramid=2 / b_adapt=2 / b_bias=0 / direct=3 / weightb=1 / open_gop=0 / weightp=2 / keyint=250 / keyint_min=23 / scenecut=40 / intra_refresh=0 / rc_lookahead=50 / rc=2pass / mbtree=1 / bitrate=5954 / ratetol=1.0 / qcomp=0.60 / qpmin=0 / qpmax=69 / qpstep=4 / cplxblur=20.0 / qblur=0.5 / ip_ratio=1.40 / aq=1:1.00
  26. Language                                 : English
  27. Default                                  : Yes
  28. Forced                                   : No
  29. Audio #1
  30. ID                                       : 2
  31. Format                                   : DTS
  32. Format/Info                              : Digital Theater Systems
  33. Codec ID                                 : A_DTS
  34. Duration                                 : 1 h 38 min
  35. Bit rate mode                            : Constant
  36. Bit rate                                 : 1 509 kb/s
  37. Channel(s)                               : 6 channels
  38. Channel layout                           : C L R Ls Rs LFE
  39. Sampling rate                            : 48.0 kHz
  40. Frame rate                               : 93.750 FPS (512 SPF)
  41. Bit depth                                : 24 bits
  42. Compression mode                         : Lossy
  43. Stream size                              : 1.04 GiB (19%)
  44. Language                                 : Japanese
  45. Default                                  : Yes
  46. Forced                                   : No
  47. Audio #2
  48. ID                                       : 3
  49. Format                                   : DTS
  50. Format/Info                              : Digital Theater Systems
  51. Codec ID                                 : A_DTS
  52. Duration                                 : 1 h 38 min
  53. Bit rate mode                            : Constant
  54. Bit rate                                 : 768 kb/s
  55. Channel(s)                               : 6 channels
  56. Channel layout                           : C L R Ls Rs LFE
  57. Sampling rate                            : 48.0 kHz
  58. Frame rate                               : 93.750 FPS (512 SPF)
  59. Bit depth                                : 24 bits
  60. Compression mode                         : Lossy
  61. Stream size                              : 542 MiB (10%)
  62. Language                                 : English
  63. Default                                  : No
  64. Forced                                   : No
  65. Text
  66. ID                                       : 4
  67. Format                                   : UTF-8
  68. Codec ID                                 : S_TEXT/UTF8
  69. Codec ID/Info                            : UTF-8 Plain Text
  70. Language                                 : English
  71. Default                                  : Yes
  72. Forced                                   : No
复制代码






                                       
                                       

                                       
                                       
                                       




回复

使用道具 举报

懒得打字嘛,点击右侧快捷回复 【右侧内容,后台自定义】
您需要登录后才可以回帖 登录 | 立即加入

本版积分规则

Archiver|小黑屋| 蓝光电影网 |网站地图

Copyright © 2021 Comsenz Inc. Powered by 蓝光电影网

蓝光电影网

本站内容由用户自主分享和转载自互联网,转载目的在于传递更多信息,并不代表本网赞同其观点和对其真实性负责。

如有侵权、违反国家法律政策行为,请联系我们,我们会第一时间及时清除和处理!

举报反馈邮箱:[email protected]

快速回复 返回顶部 返回列表