找回密码

蓝光电影网

查看: 20|回复: 0

[剧情] 红衫泪痕 Jezebel.1938.1080p.BluRay.REMUX.AVC.DTS-HD.MA.2.0-FGT 28.27GB

[复制链接]
蓝光币
515
发表于 2019-8-31 03:16:50 | 显示全部楼层 |阅读模式


◎译  名 红衫泪痕
◎片  名 Jezebel
◎年  代 1938
◎产  地 美国
◎类  别 剧情 / 恋爱
◎语  言 英语 / 法语
◎上映日期 1938-03-26
◎IMDb评分  7.5/10 from 10815 users
◎IMDb链接  http://www.imdb.com/title/tt0030287
◎豆瓣评分 7.5/10 from 756 users
◎豆瓣链接 https://movie.douban.com/subject/1293468/
◎片  长 104 分钟(TCM print)
◎导  演 William Wyler
◎编  剧 Clements Ripley / Abem Finkel
◎主  演 Bette Davis
       Henry Fonda
       George Brent
       Margaret Lindsay

◎标  签 美国 | 贝蒂·戴维斯 | BetteDavis | 美国电影 | 威廉·惠勒 | 恋爱 | WilliamWyler | 1938
◎简  介  
  贝蒂·戴维丝讼事败诉重回华纳,却争取到一定范围内选角权利。此时华纳将制片重责交给新风格的赫尔·华和斯,起头“高本钱、精建造”的线路。贝蒂在此情况下感应如鱼得水,很快表演了另一部再度获得金像奖最好女配角奖的代表作《红衫泪痕》:以南北战争期间美国南方为布景,描写一位本性倔强的美男在任性地落空她的男友以后,再想尽法子将已经找为有妇之夫的他抢返来。此片在划时代的《浊世才子》出现之前年面世遭到好评。贝蒂跟导演威廉·怀勒持续合作了三部影片,建立了贝蒂的超级女星职位。究竟上1937年起,贝薷持续十年赢得“票房皇后”的美誉,被推为“美国国影坛第一夫人”,这类殊荣在影坛上相当罕有。假如对贝蒂的银幕形象仔细观察,可发现她鲜少饰演善待别的女人的脚色,凡是是跟他人怨对、抗争,甚至发生剧烈的争论,充份显现出“同性相斥”的激烈排挤色彩。同时,贝蒂的脚色也证实了女人一样可以强悍无情、不可一世,甚至可以褫夺了一向被视为男性的特权,使汉子反要吃女人的亏,可说是首位“女性电影”的诠释者。
◎获奖情况  
  第11届奥斯卡金像奖(1939)
  最好影片(提名)
  最好女配角 贝蒂·戴维斯
  最好女配角 费伊·贝恩特
  最好摄影(提名) Ernest Haller
  最好配乐(提名) 马克思·斯坦纳
  第6届威尼斯电影节(1938)
  墨索里尼杯 最好国际电影(提名) 威廉·惠勒
  1. Video
  2. ID                                       : 1
  3. Format                                   : AVC
  4. Format/Info                              : Advanced Video Codec
  5. Format profile                           : [email protected]
  6. Format settings                          : CABAC / 4 Ref Frames
  7. Format settings, CABAC                   : Yes
  8. Format settings, Reference frames        : 4 frames
  9. Codec ID                                 : V_MPEG4/ISO/AVC
  10. Duration                                 : 1 h 44 min
  11. Bit rate mode                            : Variable
  12. Bit rate                                 : 34.9 Mb/s
  13. Maximum bit rate                         : 38.0 Mb/s
  14. Width                                    : 1 920 pixels
  15. Height                                   : 1 080 pixels
  16. Display aspect ratio                     : 16:9
  17. Frame rate mode                          : Constant
  18. Frame rate                               : 23.976 (24000/1001) FPS
  19. Color space                              : YUV
  20. Chroma subsampling                       : 4:2:0
  21. Bit depth                                : 8 bits
  22. Scan type                                : Progressive
  23. Bits/(Pixel*Frame)                       : 0.701
  24. Stream size                              : 25.4 GiB (90%)
  25. Title                                    : Jezebel.1938.1080p.BluRay.REMUX.AVC.DTS-HD.MA.2.0-FGT
  26. Language                                 : English
  27. Default                                  : No
  28. Forced                                   : No
  29. Audio #1
  30. ID                                       : 2
  31. Format                                   : DTS XLL
  32. Format/Info                              : Digital Theater Systems
  33. Commercial name                          : DTS-HD Master Audio
  34. Codec ID                                 : A_DTS
  35. Duration                                 : 1 h 44 min
  36. Bit rate mode                            : Variable
  37. Bit rate                                 : 1 970 kb/s
  38. Channel(s)                               : 2 channels
  39. Channel layout                           : L R
  40. Sampling rate                            : 48.0 kHz
  41. Frame rate                               : 93.750 FPS (512 SPF)
  42. Bit depth                                : 24 bits
  43. Compression mode                         : Lossless
  44. Stream size                              : 1.43 GiB (5%)
  45. Title                                    : Jezebel.1938.1080p.BluRay.REMUX.AVC.DTS-HD.MA.2.0-FGT
  46. Language                                 : English
  47. Default                                  : Yes
  48. Forced                                   : No
  49. Audio #2
  50. ID                                       : 3
  51. Format                                   : DTS XLL
  52. Format/Info                              : Digital Theater Systems
  53. Commercial name                          : DTS-HD Master Audio
  54. Codec ID                                 : A_DTS
  55. Duration                                 : 1 h 44 min
  56. Bit rate mode                            : Variable
  57. Bit rate                                 : 1 992 kb/s
  58. Channel(s)                               : 2 channels
  59. Channel layout                           : L R
  60. Sampling rate                            : 48.0 kHz
  61. Frame rate                               : 93.750 FPS (512 SPF)
  62. Bit depth                                : 24 bits
  63. Compression mode                         : Lossless
  64. Stream size                              : 1.45 GiB (5%)
  65. Title                                    : Jezebel.1938.1080p.BluRay.REMUX.AVC.DTS-HD.MA.2.0-FGT
  66. Language                                 : English
  67. Default                                  : No
  68. Forced                                   : No
  69. Text
  70. ID                                       : 4
  71. Format                                   : PGS
  72. Muxing mode                              : zlib
  73. Codec ID                                 : S_HDMV/PGS
  74. Codec ID/Info                            : Picture based subtitle format used on BDs/HD-DVDs
  75. Duration                                 : 1 h 41 min
  76. Bit rate                                 : 62.8 kb/s
  77. Count of elements                        : 3922
  78. Stream size                              : 45.6 MiB (0%)
  79. Title                                    : English-PGS
  80. Language                                 : English
  81. Default                                  : Yes
  82. Forced                                   : No
  83. Menu
  84. 00:00:00.000                             : en:Chapter 01
  85. 00:01:09.152                             : en:Chapter 02
  86. 00:05:00.133                             : en:Chapter 03
  87. 00:09:52.341                             : en:Chapter 04
  88. 00:12:58.444                             : en:Chapter 05
  89. 00:15:31.055                             : en:Chapter 06
  90. 00:18:32.861                             : en:Chapter 07
  91. 00:25:06.254                             : en:Chapter 08
  92. 00:28:37.757                             : en:Chapter 09
  93. 00:32:49.884                             : en:Chapter 10
  94. 00:35:05.019                             : en:Chapter 11
  95. 00:37:25.952                             : en:Chapter 12
  96. 00:43:29.648                             : en:Chapter 13
  97. 00:48:53.055                             : en:Chapter 14
  98. 00:50:57.054                             : en:Chapter 15
  99. 00:56:26.257                             : en:Chapter 16
  100. 01:00:00.930                             : en:Chapter 17
  101. 01:05:59.705                             : en:Chapter 18
  102. 01:10:29.183                             : en:Chapter 19
  103. 01:12:52.451                             : en:Chapter 20
  104. 01:16:00.347                             : en:Chapter 21
  105. 01:19:32.809                             : en:Chapter 22
  106. 01:22:30.445                             : en:Chapter 23
  107. 01:27:24.530                             : en:Chapter 24
  108. 01:31:33.988                             : en:Chapter 25
  109. 01:36:31.952                             : en:Chapter 26
  110. 01:41:25.204                             : en:Chapter 27
  111. 01:43:15.314                             : en:Chapter 28
复制代码






                                       
                                       

                                       
                                       
                                       




回复

使用道具 举报

懒得打字嘛,点击右侧快捷回复 【右侧内容,后台自定义】
您需要登录后才可以回帖 登录 | 立即加入

本版积分规则

Archiver|小黑屋| 蓝光电影网 |网站地图

Copyright © 2021 Comsenz Inc. Powered by 蓝光电影网

蓝光电影网

本站内容由用户自主分享和转载自互联网,转载目的在于传递更多信息,并不代表本网赞同其观点和对其真实性负责。

如有侵权、违反国家法律政策行为,请联系我们,我们会第一时间及时清除和处理!

举报反馈邮箱:[email protected]

快速回复 返回顶部 返回列表