找回密码

蓝光电影网

查看: 61|回复: 0

[动作] 艾娃 Ava.2020.1080p.BluRay.REMUX.AVC.DTS-HD.MA.5.1-FGT 19.85GB

[复制链接]
蓝光币
515
发表于 2020-9-11 09:13:22 | 显示全部楼层 |阅读模式


◎译  名 艾娃/Eve/伊芙/头号杀姬Ava(港)/追杀艾娃(台)
◎片  名 Ava
◎年  代 2020
◎产  地 美国
◎类  别 行动 / 惊悚 / 犯罪
◎语  言 英语
◎上映日期 2020-07-02(匈牙利) / 2020-08-25(加拿大收集) / 2020-09-25(美国)
◎IMDb评分  5.3/10 from 8456 users
◎IMDb链接  https://www.imdb.com/title/tt8784956/
◎豆瓣评分 4.9/10 from 2956 users
◎豆瓣链接 https://movie.douban.com/subject/30289869/
◎片  长 96分钟
◎导  演 泰特·泰勒 Tate Taylor
◎编  剧 马修·纽顿 Matthew Newton
◎主  演 杰西卡·查斯坦 Jessica Chastain
       科林·法瑞尔 Colin Farrell
       约翰·马尔科维奇 John Malkovich
       吉娜·戴维斯 Geena Davis
       陈冲 Joan Chen
       戴安娜·西尔弗斯 Diana Silvers
       科曼 Common
       艾恩·格拉法德 Ioan Gruffudd
       杰丝·威克斯勒 Jess Weixler
       埃夫卡·科瓦拉西尤斯 Efka Kvaraciejus
       安妮·比萨比亚 Annie Pisapia
       克里斯托弗·J·多米格 Christopher J. Domig
◎标  签 行动 | 美国 | 杰西卡·查斯坦 | 2020 | 美国电影 | 科林·法瑞尔 | 剧情 | 陈冲
◎简  介


  顶尖杀手艾娃效忠于一个神祕构造,在全球各地履行高代价方针的暗杀行动。但是,一次出了过失的行动,让艾娃身陷生死危机。面临各路杀手遮天蔽日的追杀,无路可退的艾娃惟有杀出血路,才有活下去的机遇…
  1. Video
  2. ID                                       : 1
  3. ID in the original source medium         : 4113 (0x1011)
  4. Format                                   : AVC
  5. Format/Info                              : Advanced Video Codec
  6. Format profile                           : [email protected]
  7. Format settings                          : CABAC / 4 Ref Frames
  8. Format settings, CABAC                   : Yes
  9. Format settings, Reference frames        : 4 frames
  10. Format settings, GOP                     : M=3, N=23
  11. Codec ID                                 : V_MPEG4/ISO/AVC
  12. Duration                                 : 1 h 36 min
  13. Bit rate mode                            : Variable
  14. Bit rate                                 : 23.3 Mb/s
  15. Maximum bit rate                         : 28.0 Mb/s
  16. Width                                    : 1 920 pixels
  17. Height                                   : 1 080 pixels
  18. Display aspect ratio                     : 16:9
  19. Frame rate mode                          : Constant
  20. Frame rate                               : 23.976 (24000/1001/189150) FPS
  21. Color space                              : YUV
  22. Chroma subsampling                       : 4:2:0
  23. Bit depth                                : 8 bits
  24. Scan type                                : Progressive
  25. Bits/(Pixel*Frame)                       : 0.468
  26. Stream size                              : 15.7 GiB (79%)
  27. Title                                    : Ava.2020.1080p.BluRay.REMUX.AVC.DTS-HD.MA.5.1-FGT
  28. Language                                 : English
  29. Default                                  : No
  30. Forced                                   : No
  31. Color range                              : Limited
  32. Color primaries                          : BT.709
  33. Transfer characteristics                 : BT.709
  34. Matrix coefficients                      : BT.709
  35. Original source medium                   : Blu-ray
  36. Audio #1
  37. ID                                       : 2
  38. ID in the original source medium         : 4352 (0x1100)
  39. Format                                   : DTS XLL
  40. Format/Info                              : Digital Theater Systems
  41. Commercial name                          : DTS-HD Master Audio
  42. Codec ID                                 : A_DTS
  43. Duration                                 : 1 h 36 min
  44. Bit rate mode                            : Variable
  45. Bit rate                                 : 3 753 kb/s
  46. Channel(s)                               : 6 channels
  47. Channel layout                           : C L R Ls Rs LFE
  48. Sampling rate                            : 48.0 kHz
  49. Frame rate                               : 93.750 FPS (512 SPF)
  50. Bit depth                                : 24 bits
  51. Compression mode                         : Lossless
  52. Stream size                              : 2.54 GiB (13%)
  53. Title                                    : Ava.2020.1080p.BluRay.REMUX.AVC.DTS-HD.MA.5.1-FGT
  54. Language                                 : English
  55. Default                                  : Yes
  56. Forced                                   : No
  57. Original source medium                   : Blu-ray
  58. Audio #2
  59. ID                                       : 3
  60. ID in the original source medium         : 4353 (0x1101)
  61. Format                                   : PCM
  62. Format settings                          : Little / Signed
  63. Codec ID                                 : A_PCM/INT/LIT
  64. Duration                                 : 1 h 36 min
  65. Bit rate mode                            : Constant
  66. Bit rate                                 : 2 304 kb/s
  67. Channel(s)                               : 2 channels
  68. Sampling rate                            : 48.0 kHz
  69. Frame rate                               : 30.000 FPS (1600 SPF)
  70. Bit depth                                : 24 bits
  71. Stream size                              : 1.56 GiB (8%)
  72. Title                                    : Ava.2020.1080p.BluRay.REMUX.AVC.DTS-HD.MA.5.1-FGT
  73. Language                                 : English
  74. Default                                  : No
  75. Forced                                   : No
  76. Original source medium                   : Blu-ray
  77. Text #1
  78. ID                                       : 4
  79. Format                                   : UTF-8
  80. Codec ID                                 : S_TEXT/UTF8
  81. Codec ID/Info                            : UTF-8 Plain Text
  82. Duration                                 : 1 h 30 min
  83. Bit rate                                 : 45 b/s
  84. Count of elements                        : 909
  85. Stream size                              : 30.5 KiB (0%)
  86. Title                                    : English-SRT
  87. Language                                 : English
  88. Default                                  : Yes
  89. Forced                                   : No
  90. Text #2
  91. ID                                       : 5
  92. ID in the original source medium         : 4608 (0x1200)
  93. Format                                   : PGS
  94. Muxing mode                              : zlib
  95. Codec ID                                 : S_HDMV/PGS
  96. Codec ID/Info                            : Picture based subtitle format used on BDs/HD-DVDs
  97. Duration                                 : 1 h 31 min
  98. Bit rate                                 : 24.5 kb/s
  99. Count of elements                        : 1810
  100. Stream size                              : 16.0 MiB (0%)
  101. Title                                    : English-PGS
  102. Language                                 : English
  103. Default                                  : No
  104. Forced                                   : No
  105. Original source medium                   : Blu-ray
  106. Menu
  107. 00:00:00.000                             : en:Chapter 01
  108. 00:11:07.708                             : en:Chapter 02
  109. 00:21:53.395                             : en:Chapter 03
  110. 00:32:22.899                             : en:Chapter 04
  111. 00:44:26.330                             : en:Chapter 05
  112. 00:58:33.426                             : en:Chapter 06
  113. 01:10:38.192                             : en:Chapter 07
  114. 01:18:23.949                             : en:Chapter 08
  115. 01:32:28.751                             : en:Chapter 09
复制代码






                                       
                                       

                                       
                                       
                                       




回复

使用道具 举报

懒得打字嘛,点击右侧快捷回复 【右侧内容,后台自定义】
您需要登录后才可以回帖 登录 | 立即加入

本版积分规则

Archiver|小黑屋| 蓝光电影网 |网站地图

Copyright © 2021 Comsenz Inc. Powered by 蓝光电影网

蓝光电影网

本站内容由用户自主分享和转载自互联网,转载目的在于传递更多信息,并不代表本网赞同其观点和对其真实性负责。

如有侵权、违反国家法律政策行为,请联系我们,我们会第一时间及时清除和处理!

举报反馈邮箱:[email protected]

快速回复 返回顶部 返回列表