找回密码

蓝光电影网

查看: 20|回复: 0

[剧情] 贝德福德军变 The.Bedford.Incident.1965.1080p.BluRay.REMUX.AVC.DTS-HD.MA.2.0-FGT 21.44GB

[复制链接]
蓝光币
515
发表于 2019-8-30 17:09:30 | 显示全部楼层 |阅读模式


◎译  名 贝德福德军变
◎片  名 The Bedford Incident
◎年  代 1965
◎产  地 英国 / 美国
◎类  别 剧情 / 惊悚
◎语  言 俄语 / 英语
◎上映日期 1965-11-02
◎IMDb评分  7.4/10 from 4259 users
◎IMDb链接  http://www.imdb.com/title/tt0058962
◎豆瓣评分 7.0/10 from 44 users
◎豆瓣链接 https://movie.douban.com/subject/1307691/
◎片  长 102 分钟
◎导  演 James B. Harris
◎编  剧 James Poe / Mark Rascovitch
◎主  演 理查德·威德马克 Richard Widmark
       西德尼·波蒂埃 Sidney Poitier
       詹姆斯·迈克阿瑟 James MacArthur

◎标  签 美国 | 战争 | 军事 | RichardWidmark | 剧情 | 英国 | 美国电影 | 反战
◎简  介  
  本片报告的是二战后,俄罗斯和美国在冷战阶段为了扩大自己的势力范围,削弱对方的军事气力。在丹麦海峡中部所展开的侦察于反侦察的故事。
  1. Video
  2. ID                                       : 1
  3. Format                                   : AVC
  4. Format/Info                              : Advanced Video Codec
  5. Format profile                           : [email protected]
  6. Format settings                          : CABAC / 4 Ref Frames
  7. Format settings, CABAC                   : Yes
  8. Format settings, Reference frames        : 4 frames
  9. Codec ID                                 : V_MPEG4/ISO/AVC
  10. Duration                                 : 1 h 42 min
  11. Bit rate mode                            : Variable
  12. Bit rate                                 : 28.0 Mb/s
  13. Maximum bit rate                         : 32.0 Mb/s
  14. Width                                    : 1 920 pixels
  15. Height                                   : 1 080 pixels
  16. Display aspect ratio                     : 16:9
  17. Frame rate mode                          : Constant
  18. Frame rate                               : 23.976 (24000/1001) FPS
  19. Standard                                 : NTSC
  20. Color space                              : YUV
  21. Chroma subsampling                       : 4:2:0
  22. Bit depth                                : 8 bits
  23. Scan type                                : Progressive
  24. Bits/(Pixel*Frame)                       : 0.563
  25. Stream size                              : 19.9 GiB (93%)
  26. Title                                    : The.Bedford.Incident.1965.1080p.BluRay.REMUX.AVC.DTS-HD.MA.2.0-FGT
  27. Language                                 : English
  28. Default                                  : No
  29. Forced                                   : No
  30. Color range                              : Limited
  31. Color primaries                          : BT.709
  32. Transfer characteristics                 : BT.709
  33. Matrix coefficients                      : BT.709
  34. Audio
  35. ID                                       : 2
  36. Format                                   : DTS XLL
  37. Format/Info                              : Digital Theater Systems
  38. Commercial name                          : DTS-HD Master Audio
  39. Codec ID                                 : A_DTS
  40. Duration                                 : 1 h 42 min
  41. Bit rate mode                            : Variable
  42. Bit rate                                 : 2 096 kb/s
  43. Channel(s)                               : 2 channels
  44. Channel layout                           : L R
  45. Sampling rate                            : 48.0 kHz
  46. Frame rate                               : 93.750 FPS (512 SPF)
  47. Bit depth                                : 24 bits
  48. Compression mode                         : Lossless
  49. Stream size                              : 1.49 GiB (7%)
  50. Title                                    : The.Bedford.Incident.1965.1080p.BluRay.REMUX.AVC.DTS-HD.MA.2.0-FGT
  51. Language                                 : English
  52. Default                                  : Yes
  53. Forced                                   : No
  54. Menu
  55. 00:00:00.000                             : en:Chapter 01
  56. 00:04:57.964                             : en:Chapter 02
  57. 00:11:46.080                             : en:Chapter 03
  58. 00:22:02.863                             : en:Chapter 04
  59. 00:34:29.650                             : en:Chapter 05
  60. 00:41:14.889                             : en:Chapter 06
  61. 00:50:28.650                             : en:Chapter 07
  62. 01:04:56.309                             : en:Chapter 08
  63. 01:16:06.603                             : en:Chapter 09
  64. 01:21:03.775                             : en:Chapter 10
  65. 01:35:27.263                             : en:Chapter 11
  66. 01:40:52.755                             : en:Chapter 12
复制代码






                                       
                                       

                                       
                                       
                                       




回复

使用道具 举报

懒得打字嘛,点击右侧快捷回复 【右侧内容,后台自定义】
您需要登录后才可以回帖 登录 | 立即加入

本版积分规则

Archiver|小黑屋| 蓝光电影网 |网站地图

Copyright © 2021 Comsenz Inc. Powered by 蓝光电影网

蓝光电影网

本站内容由用户自主分享和转载自互联网,转载目的在于传递更多信息,并不代表本网赞同其观点和对其真实性负责。

如有侵权、违反国家法律政策行为,请联系我们,我们会第一时间及时清除和处理!

举报反馈邮箱:[email protected]

快速回复 返回顶部 返回列表