找回密码

蓝光电影网

查看: 23|回复: 0

[剧情] 陷得太深/无法自拔 In.too.Deep.1999.1080p.BluRay.REMUX.AVC.DTS-HD.MA.5.1-FGT 19.06GB

[复制链接]
蓝光币
519
发表于 2019-8-29 18:21:11 | 显示全部楼层 |阅读模式


◎译  名 陷得太深 / 没法自拔
◎片  名 In Too Deep
◎年  代 1999
◎产  地 美国
◎类  别 剧情 / 惊悚 / 犯罪
◎语  言 英语
◎上映日期 1999-08-25
◎IMDb评分  6.3/10 from 5386 users
◎IMDb链接  http://www.imdb.com/title/tt0160401
◎豆瓣评分 0/10 from 0 users
◎豆瓣链接 https://movie.douban.com/subject/1292821/
◎片  长 95 分钟
◎导  演 Michael Rymer
◎编  剧 Michael Henry Brown / Paul Aaron
◎主  演 Omar Epps
       LL Cool J
       Nia Long

◎标  签 黑帮 | hiphop | 黑人 | 美国 | 犯罪 | 说唱电影 | 种族 | x264
◎简  介  
  卧底差人预备深入辛辛那提的毒品买卖构造机构。在俄亥俄州,一个自称为神的人物控制着一切。
  1. Video
  2. ID                                       : 1
  3. Format                                   : AVC
  4. Format/Info                              : Advanced Video Codec
  5. Format profile                           : [email protected]
  6. Format settings                          : CABAC / 4 Ref Frames
  7. Format settings, CABAC                   : Yes
  8. Format settings, Reference frames        : 4 frames
  9. Format settings, GOP                     : M=3, N=24
  10. Codec ID                                 : V_MPEG4/ISO/AVC
  11. Duration                                 : 1 h 37 min
  12. Bit rate mode                            : Variable
  13. Bit rate                                 : 26.4 Mb/s
  14. Maximum bit rate                         : 35.0 Mb/s
  15. Width                                    : 1 920 pixels
  16. Height                                   : 1 080 pixels
  17. Display aspect ratio                     : 16:9
  18. Frame rate mode                          : Constant
  19. Frame rate                               : 23.976 (24000/1001) FPS
  20. Standard                                 : NTSC
  21. Color space                              : YUV
  22. Chroma subsampling                       : 4:2:0
  23. Bit depth                                : 8 bits
  24. Scan type                                : Progressive
  25. Bits/(Pixel*Frame)                       : 0.532
  26. Stream size                              : 17.9 GiB (94%)
  27. Language                                 : English
  28. Default                                  : No
  29. Forced                                   : No
  30. Color range                              : Limited
  31. Color primaries                          : BT.709
  32. Transfer characteristics                 : BT.709
  33. Matrix coefficients                      : BT.709
  34. Audio
  35. ID                                       : 2
  36. Format                                   : DTS XLL
  37. Format/Info                              : Digital Theater Systems
  38. Commercial name                          : DTS-HD Master Audio
  39. Codec ID                                 : A_DTS
  40. Duration                                 : 1 h 37 min
  41. Bit rate mode                            : Variable
  42. Bit rate                                 : 1 657 kb/s
  43. Channel(s)                               : 6 channels
  44. Channel layout                           : C L R Ls Rs LFE
  45. Sampling rate                            : 48.0 kHz
  46. Frame rate                               : 93.750 FPS (512 SPF)
  47. Bit depth                                : 16 bits
  48. Compression mode                         : Lossless
  49. Stream size                              : 1.12 GiB (6%)
  50. Title                                    : Surround 5.1
  51. Language                                 : English
  52. Default                                  : Yes
  53. Forced                                   : No
  54. Menu
  55. 00:00:00.000                             : en:Chapter 01
  56. 00:06:48.408                             : en:Chapter 02
  57. 00:13:49.036                             : en:Chapter 03
  58. 00:21:44.803                             : en:Chapter 04
  59. 00:30:00.298                             : en:Chapter 05
  60. 00:38:23.384                             : en:Chapter 06
  61. 00:45:32.396                             : en:Chapter 07
  62. 00:54:21.341                             : en:Chapter 08
  63. 00:59:42.620                             : en:Chapter 09
  64. 01:08:05.831                             : en:Chapter 10
  65. 01:14:03.856                             : en:Chapter 11
  66. 01:19:05.282                             : en:Chapter 12
  67. 01:26:29.559                             : en:Chapter 13
  68. 01:32:31.212                             : en:Chapter 14
复制代码






                                       
                                       

                                       
                                       
                                       




回复

使用道具 举报

懒得打字嘛,点击右侧快捷回复 【右侧内容,后台自定义】
您需要登录后才可以回帖 登录 | 立即加入

本版积分规则

Archiver|小黑屋| 蓝光电影网 |网站地图

Copyright © 2021 Comsenz Inc. Powered by 蓝光电影网

蓝光电影网

本站内容由用户自主分享和转载自互联网,转载目的在于传递更多信息,并不代表本网赞同其观点和对其真实性负责。

如有侵权、违反国家法律政策行为,请联系我们,我们会第一时间及时清除和处理!

举报反馈邮箱:[email protected]

快速回复 返回顶部 返回列表