找回密码

蓝光电影网

查看: 171|回复: 2

[动作] 极速复仇 Fast.Vengeance.2021.1080p.BluRay.REMUX.AVC.DTS-HD.MA.5.1-FGT 30.09GB

[复制链接]
蓝光币
515
发表于 2021-8-15 19:24:43 | 显示全部楼层 |阅读模式


◎译  名 极速复仇
◎片  名 Fast Vengeance
◎年  代 2022
◎产  地 美国
◎类  别 行动 / 犯罪
◎语  言 英语
◎上映日期 2022(美国)
◎豆瓣评分 /10 from 0 users
◎豆瓣链接 https://movie.douban.com/subject/35474155/
◎导  演 皮尔瑞·雷金纳德·迪奥 Pearry Reginald Teo
◎编  剧 皮尔瑞·雷金纳德·迪奥 Pearry Reginald Teo
◎主  演 DMX DMX
       娜塔莉·伯恩 Natalie Burn
       D.Y. Sao D.Y. Sao
◎标  签 行动 | 美国 | 犯罪 | 剧情 | 使人恶心 | 一文不值 | 美国电影 | 性奴,反转
◎简  介


  暂无相关剧情先容
  1. Video
  2. ID                                       : 1
  3. ID in the original source medium         : 4113 (0x1011)
  4. Format                                   : AVC
  5. Format/Info                              : Advanced Video Codec
  6. Format profile                           : [email protected]
  7. Format settings                          : CABAC / 4 Ref Frames
  8. Format settings, CABAC                   : Yes
  9. Format settings, Reference frames        : 4 frames
  10. Codec ID                                 : V_MPEG4/ISO/AVC
  11. Duration                                 : 1 h 54 min
  12. Bit rate mode                            : Constant
  13. Bit rate                                 : 35.0 Mb/s
  14. Width                                    : 1 920 pixels
  15. Height                                   : 1 080 pixels
  16. Display aspect ratio                     : 16:9
  17. Frame rate mode                          : Constant
  18. Frame rate                               : 23.976 (24000/1001/189150) FPS
  19. Color space                              : YUV
  20. Chroma subsampling                       : 4:2:0
  21. Bit depth                                : 8 bits
  22. Scan type                                : Progressive
  23. Bits/(Pixel*Frame)                       : 0.704
  24. Stream size                              : 27.0 GiB (90%)
  25. Language                                 : English
  26. Default                                  : No
  27. Forced                                   : No
  28. Original source medium                   : Blu-ray
  29. Audio #1
  30. ID                                       : 2
  31. ID in the original source medium         : 4352 (0x1100)
  32. Format                                   : DTS XLL
  33. Format/Info                              : Digital Theater Systems
  34. Commercial name                          : DTS-HD Master Audio
  35. Codec ID                                 : A_DTS
  36. Duration                                 : 1 h 54 min
  37. Bit rate mode                            : Variable
  38. Bit rate                                 : 2 185 kb/s
  39. Channel(s)                               : 6 channels
  40. Channel layout                           : C L R Ls Rs LFE
  41. Sampling rate                            : 48.0 kHz
  42. Frame rate                               : 93.750 FPS (512 SPF)
  43. Bit depth                                : 24 bits
  44. Compression mode                         : Lossless
  45. Stream size                              : 1.75 GiB (6%)
  46. Title                                    : DTS-HD MA 5.1
  47. Language                                 : English
  48. Default                                  : Yes
  49. Forced                                   : No
  50. Original source medium                   : Blu-ray
  51. Audio #2
  52. ID                                       : 3
  53. ID in the original source medium         : 4353 (0x1101)
  54. Format                                   : DTS XLL
  55. Format/Info                              : Digital Theater Systems
  56. Commercial name                          : DTS-HD Master Audio
  57. Codec ID                                 : A_DTS
  58. Duration                                 : 1 h 54 min
  59. Bit rate mode                            : Variable
  60. Bit rate                                 : 1 625 kb/s
  61. Channel(s)                               : 2 channels
  62. Channel layout                           : L R
  63. Sampling rate                            : 48.0 kHz
  64. Frame rate                               : 93.750 FPS (512 SPF)
  65. Bit depth                                : 24 bits
  66. Compression mode                         : Lossless
  67. Stream size                              : 1.30 GiB (4%)
  68. Title                                    : DTS-HD MA 2.0
  69. Language                                 : English
  70. Default                                  : No
  71. Forced                                   : No
  72. Original source medium                   : Blu-ray
  73. Text #1
  74. ID                                       : 4
  75. Format                                   : UTF-8
  76. Codec ID                                 : S_TEXT/UTF8
  77. Codec ID/Info                            : UTF-8 Plain Text
  78. Duration                                 : 1 h 51 min
  79. Bit rate                                 : 43 b/s
  80. Count of elements                        : 1273
  81. Stream size                              : 35.2 KiB (0%)
  82. Title                                    : SRT
  83. Language                                 : English
  84. Default                                  : Yes
  85. Forced                                   : No
  86. Text #2
  87. ID                                       : 5
  88. ID in the original source medium         : 4608 (0x1200)
  89. Format                                   : PGS
  90. Muxing mode                              : zlib
  91. Codec ID                                 : S_HDMV/PGS
  92. Codec ID/Info                            : Picture based subtitle format used on BDs/HD-DVDs
  93. Duration                                 : 1 h 52 min
  94. Bit rate                                 : 29.8 kb/s
  95. Count of elements                        : 2887
  96. Stream size                              : 23.9 MiB (0%)
  97. Language                                 : English
  98. Default                                  : No
  99. Forced                                   : No
  100. Original source medium                   : Blu-ray
  101. Menu
  102. 00:00:00.000                             : Chapter 01
  103. 00:10:10.484                             : Chapter 02
  104. 00:18:08.670                             : Chapter 03
  105. 00:30:10.391                             : Chapter 04
  106. 00:37:08.184                             : Chapter 05
  107. 00:51:16.031                             : Chapter 06
  108. 01:03:14.373                             : Chapter 07
  109. 01:12:03.360                             : Chapter 08
  110. 01:18:57.566                             : Chapter 09
  111. 01:27:50.807                             : Chapter 10
  112. 01:41:21.450                             : Chapter 11
  113. 01:52:19.190                             : Chapter 12
  114. 01:54:51.217                             : Chapter 13
复制代码




                                       
                                       

                                       
                                       
                                       




回复

使用道具 举报

蓝光币
8
发表于 2021-8-22 11:37:37 | 显示全部楼层

感谢楼主的无私分享!
回复 支持 反对

使用道具 举报

蓝光币
14
发表于 2021-9-18 10:45:22 | 显示全部楼层

这东西我收了!谢谢楼主,
回复 支持 反对

使用道具 举报

懒得打字嘛,点击右侧快捷回复 【右侧内容,后台自定义】
您需要登录后才可以回帖 登录 | 立即加入

本版积分规则

Archiver|小黑屋| 蓝光电影网 |网站地图

Copyright © 2021 Comsenz Inc. Powered by 蓝光电影网

蓝光电影网

本站内容由用户自主分享和转载自互联网,转载目的在于传递更多信息,并不代表本网赞同其观点和对其真实性负责。

如有侵权、违反国家法律政策行为,请联系我们,我们会第一时间及时清除和处理!

举报反馈邮箱:[email protected]

快速回复 返回顶部 返回列表