找回密码

蓝光电影网

查看: 25|回复: 0

[喜剧] 瘦子/瘦人 The.Thin.Man.1934.1080p.BluRay.REMUX.AVC.DTS-HD.MA.2.0-FGT 23.42GB

[复制链接]
蓝光币
515
发表于 2019-10-7 22:43:49 | 显示全部楼层 |阅读模式


◎译  名 瘦子 / 瘦人 / 要命的瘦子
◎片  名 The Thin Man
◎年  代 1934
◎产  地 美国
◎类  别 笑剧 / 犯罪 / 黑色电影
◎语  言 英语
◎上映日期 1934-05-25
◎IMDb评分  8.1/10 from 24301 users
◎IMDb链接  http://www.imdb.com/title/tt0025878
◎豆瓣评分 7.7/10 from 957 users
◎豆瓣链接 https://movie.douban.com/subject/1293827/
◎片  长 91 分钟
◎导  演 W.S.范戴克 W.S. Van Dyke
◎编  剧 艾伯特·哈克特 Albert Hackett / 弗朗西丝·古德里奇 Frances Goodrich / 达希尔·哈米特 Dashiell Hammett
◎主  演 威廉·鲍威尔 William Powell
       玛娜·洛伊 Myrna Loy
       莫琳·奥沙利文 Maureen O'Sullivan
       纳特·彭德尔顿 Nat Pendleton
       Minna Gombell
       波特·霍尔 Porter Hall
       亨利·沃兹沃思 Henry Wadsworth
       威廉·亨利 William Henry
       Harold Huber
       恺撒·罗摩洛 Cesar Romero
       娜塔莉·穆尔黑德 Natalie Moorhead
       爱德华·布罗菲 Edward Brophy
       Edward Ellis
       Cyril Thornton
       Will Aubrey
       William Augustin
       波莉·贝利 Polly Bailey
       Arthur Belasco
       Brooks Benedict
       Tui Bow
       Raymond Brown
       Ruth Channing
       Jack Cheatham
       Clay Clement
       Nick Copeland
       Pat Flaherty
       达格拉斯·福雷 Douglas Fowley
       Christian J. Frank
       Kenneth Gibson
       Dick Gordon
       克莱顿·黑尔 Creighton Hale
       Sherry Hall
       Edward Hearn
       Robert Homans
       Thomas E. Jackson
       Sydney Jarvis
       Tiny Jones
       肯纳G.肯普 Kenner G. Kemp
       沃尔特·朗 Walter Long
       Fred Malatesta
       Hans-Joachim Moebis
       威廉·H·奥布莱恩 William H. O'Brien
       弗兰克·奥康纳 Frank O'Connor
       Henry Otho
       Garry Owen
       李·费尔普斯 Lee Phelps
       Alexander Pollard
       Albert Pollet
       Bob Reeves
       伯特·罗奇 Bert Roach
       罗尔夫·塞丹 Rolfe Sedan
       格特鲁德·肖特 Gertrude Short
       Lee Shumway
       Pietro Sosso
       Ben Taggart
       Phil Tead
       George Templeton
       哈利·坦布鲁克 Harry Tenbrook
       Huey White
       李奥·怀特 Leo White
       查尔斯·威廉姆斯 Charles Williams

◎标  签 美国 | 悬疑 | 笑剧 | 1930s | 犯罪 | 美国电影 | 1934 | 典范
◎简  介  
  Nick和Nora 这对搞笑侦察夫妻档总是连手反击观察案件。这回他们要动手的是一位发现家失落的案子,要找出为何会失落,且失落到那里去了……?
  
    相当做功地将笑剧和悬疑元素融合在一路。William Powell和Myrna Loy 饰演的夫妻档,是影史上第一对塑形成功的屏幕情侣组合!本片导演就是影坛上有『一次OK』之封号的 W.S. Van Dyke,本片他只花了两星期就拍摄终了!由华人黄宗沾担纲摄影指导。本片独占的笑剧悬疑风,也成往后这范例电影的祖师爷。Albert Hackett和Frances Goodrich 按照 Dashiell Hammett 的小说改编成剧本。后来还拍摄了五部续集。
◎获奖情况  
  第7届奥斯卡金像奖(1935)
  最好影片(提名)
  最好导演(提名) W.S.范戴克
  最好男配角(提名) 威廉·鲍威尔
  最好改编剧本(提名) 艾伯特·哈克特 / 弗朗西丝·古德里奇
  1. Video
  2. ID                                       : 1
  3. Format                                   : AVC
  4. Format/Info                              : Advanced Video Codec
  5. Format profile                           : [email protected]
  6. Format settings                          : CABAC / 4 Ref Frames
  7. Format settings, CABAC                   : Yes
  8. Format settings, Reference frames        : 4 frames
  9. Codec ID                                 : V_MPEG4/ISO/AVC
  10. Duration                                 : 1 h 30 min
  11. Bit rate mode                            : Variable
  12. Bit rate                                 : 34.9 Mb/s
  13. Maximum bit rate                         : 38.0 Mb/s
  14. Width                                    : 1 920 pixels
  15. Height                                   : 1 080 pixels
  16. Display aspect ratio                     : 16:9
  17. Frame rate mode                          : Constant
  18. Frame rate                               : 23.976 (24000/1001) FPS
  19. Color space                              : YUV
  20. Chroma subsampling                       : 4:2:0
  21. Bit depth                                : 8 bits
  22. Scan type                                : Progressive
  23. Bits/(Pixel*Frame)                       : 0.702
  24. Stream size                              : 22.1 GiB (95%)
  25. Title                                    : The.Thin.Man.1934.1080p.BluRay.REMUX.AVC.DTS-HD.MA.2.0-FGT
  26. Language                                 : English
  27. Default                                  : No
  28. Forced                                   : No
  29. Audio
  30. ID                                       : 2
  31. Format                                   : DTS XLL
  32. Format/Info                              : Digital Theater Systems
  33. Commercial name                          : DTS-HD Master Audio
  34. Codec ID                                 : A_DTS
  35. Duration                                 : 1 h 30 min
  36. Bit rate mode                            : Variable
  37. Bit rate                                 : 1 983 kb/s
  38. Channel(s)                               : 2 channels
  39. Channel layout                           : L R
  40. Sampling rate                            : 48.0 kHz
  41. Frame rate                               : 93.750 FPS (512 SPF)
  42. Bit depth                                : 24 bits
  43. Compression mode                         : Lossless
  44. Stream size                              : 1.26 GiB (5%)
  45. Title                                    : The.Thin.Man.1934.1080p.BluRay.REMUX.AVC.DTS-HD.MA.2.0-FGT
  46. Language                                 : English
  47. Default                                  : Yes
  48. Forced                                   : No
  49. Text
  50. ID                                       : 3
  51. Format                                   : PGS
  52. Muxing mode                              : zlib
  53. Codec ID                                 : S_HDMV/PGS
  54. Codec ID/Info                            : Picture based subtitle format used on BDs/HD-DVDs
  55. Duration                                 : 1 h 29 min
  56. Bit rate                                 : 57.8 kb/s
  57. Count of elements                        : 4464
  58. Stream size                              : 37.0 MiB (0%)
  59. Title                                    : English-PGS
  60. Language                                 : English
  61. Default                                  : Yes
  62. Forced                                   : No
  63. Menu
  64. 00:00:00.000                             : en:Chapter 01
  65. 00:00:50.133                             : en:Chapter 02
  66. 00:04:34.315                             : en:Chapter 03
  67. 00:07:03.714                             : en:Chapter 04
  68. 00:10:35.843                             : en:Chapter 05
  69. 00:13:09.789                             : en:Chapter 06
  70. 00:15:47.738                             : en:Chapter 07
  71. 00:20:50.958                             : en:Chapter 08
  72. 00:24:47.319                             : en:Chapter 09
  73. 00:27:49.209                             : en:Chapter 10
  74. 00:31:22.547                             : en:Chapter 11
  75. 00:36:20.511                             : en:Chapter 12
  76. 00:37:47.515                             : en:Chapter 13
  77. 00:41:45.377                             : en:Chapter 14
  78. 00:45:07.246                             : en:Chapter 15
  79. 00:47:21.797                             : en:Chapter 16
  80. 00:50:08.922                             : en:Chapter 17
  81. 00:52:14.089                             : en:Chapter 18
  82. 00:56:43.274                             : en:Chapter 19
  83. 01:00:52.398                             : en:Chapter 20
  84. 01:05:40.519                             : en:Chapter 21
  85. 01:09:05.391                             : en:Chapter 22
  86. 01:12:47.363                             : en:Chapter 23
  87. 01:15:51.672                             : en:Chapter 24
  88. 01:20:01.254                             : en:Chapter 25
  89. 01:23:13.405                             : en:Chapter 26
  90. 01:26:33.313                             : en:Chapter 27
  91. 01:28:49.949                             : en:Chapter 28
  92. 01:30:51.195                             : en:Chapter 29
复制代码






                                       
                                       

                                       
                                       
                                       




回复

使用道具 举报

懒得打字嘛,点击右侧快捷回复 【右侧内容,后台自定义】
您需要登录后才可以回帖 登录 | 立即加入

本版积分规则

Archiver|小黑屋| 蓝光电影网 |网站地图

Copyright © 2021 Comsenz Inc. Powered by 蓝光电影网

蓝光电影网

本站内容由用户自主分享和转载自互联网,转载目的在于传递更多信息,并不代表本网赞同其观点和对其真实性负责。

如有侵权、违反国家法律政策行为,请联系我们,我们会第一时间及时清除和处理!

举报反馈邮箱:[email protected]

快速回复 返回顶部 返回列表