找回密码

蓝光电影网

查看: 17|回复: 0

[剧情] 虎口巡航 Cruising.1980.1080p.BluRay.REMUX.AVC.DTS-HD.MA.5.1-FGT 26.81GB

[复制链接]
蓝光币
515
发表于 2019-8-29 15:26:26 | 显示全部楼层 |阅读模式


◎译  名 虎口巡航
◎片  名 Cruising
◎年  代 1980
◎产  地 西德 / 美国
◎类  别 剧情 / 悬疑 / 惊悚 / 犯罪
◎语  言 英语
◎上映日期 1980-02-08
◎IMDb评分  6.4/10 from 16647 users
◎IMDb链接  http://www.imdb.com/title/tt0080569
◎豆瓣评分 6.4/10 from 853 users
◎豆瓣链接 https://movie.douban.com/subject/1293268/
◎片  长 102 分钟
◎导  演 威廉·弗莱德金 William Friedkin
◎编  剧 威廉·弗莱德金 William Friedkin / Gerald Walker
◎主  演 阿尔·帕西诺 Al Pacino
       保罗·索维诺 Paul Sorvino
       凯伦·阿兰 Karen Allen
       理查德·考克斯 Richard Cox
       唐·斯卡尔蒂诺 Don Scardino
       乔·斯皮内尔 Joe Spinell
       杰·阿克沃内 Jay Acovone
       巴顿·海曼 Barton Heyman
       艾伦·米勒 Allan Miller
       桑尼格鲁索 Sonny Grosso
       艾德·奥尼尔 Ed O'Neill
       Michael Aronin
       詹姆斯·瑞马尔 James Remar
       威廉姆·拉斯 William Russ
       迈克·斯塔尔 Mike Starr
       Steve Inwood
       Keith Prentice
       Leland Starnes
       里奥·伯梅斯特 Leo Burmester
       鲍沃斯·布斯 Powers Boothe
       詹姆斯·苏托里乌斯 James Sutorius
       Richard Jamieson
       吉米·雷·威克斯 Jimmie Ray Weeks
       Carmine Stippo
       詹姆斯·海登 James Hayden
       Robert Carnegie
       Sylvia Gassel
       Penny Gumeny
       Burr DeBenning
       Ray Vitte
       Dan Sturkie
       Linda Gary
       Kirsten Baker
       Christian Daugherty

◎标  签 美国 | AlPacino | 阿尔·帕西诺 | 犯罪 | 悬疑 | 1980 | 同性 | 同道
◎简  介  
  故事发生在富贵的大都会纽约,连续串凶杀案的发生吸引了重案组的留意,由于案情牵扯到了同性恋者,因此在圈内引发了极大的反应,警方遭到的压力越来越大,终极决议派出警察史蒂夫(阿尔·帕西诺 Al Pacino 饰),伪装成同性恋者打入圈子查找线索。
  伪装的身份让史蒂夫感应不胜重负,天天对着五花八门希奇怪僻的汉子,史蒂夫心里里的失望和压制渐渐堆集,与此同时,他对局里严刑逼供嫌犯思齐普李(杰·阿克沃内 Jay Acovone 饰)的行为感应非常不满,随着时候的推移,史蒂夫的精神走到了接近解体的边沿。终极,一条重要的线索渐渐浮出水面,但是这却并没能让史蒂夫松一口气。
  1. Video
  2. ID                                       : 1
  3. Format                                   : AVC
  4. Format/Info                              : Advanced Video Codec
  5. Format profile                           : [email protected]
  6. Format settings                          : CABAC / 3 Ref Frames
  7. Format settings, CABAC                   : Yes
  8. Format settings, Reference frames        : 3 frames
  9. Codec ID                                 : V_MPEG4/ISO/AVC
  10. Duration                                 : 1 h 41 min
  11. Bit rate mode                            : Variable
  12. Bit rate                                 : 31.7 Mb/s
  13. Nominal bit rate                         : 35.0 Mb/s
  14. Maximum bit rate                         : 35.0 Mb/s
  15. Width                                    : 1 920 pixels
  16. Height                                   : 1 080 pixels
  17. Display aspect ratio                     : 16:9
  18. Frame rate mode                          : Constant
  19. Frame rate                               : 23.976 (24000/1001) FPS
  20. Color space                              : YUV
  21. Chroma subsampling                       : 4:2:0
  22. Bit depth                                : 8 bits
  23. Scan type                                : Progressive
  24. Bits/(Pixel*Frame)                       : 0.637
  25. Stream size                              : 22.5 GiB (84%)
  26. Title                                    : Cruising.1980.1080p.BluRay.REMUX.AVC.DTS-HD.MA.5.1-FGT
  27. Writing library                          : x264 core 148 r2705 3f5ed56
  28. Encoding settings                        : cabac=1 / ref=4 / deblock=0:-1:-1 / analyse=0x3:0x133 / me=umh / subme=10 / psy=1 / psy_rd=1.00:0.15 / mixed_ref=1 / me_range=24 / chroma_me=1 / trellis=2 / 8x8dct=1 / cqm=0 / deadzone=21,11 / fast_pskip=1 / chroma_qp_offset=-3 / threads=34 / lookahead_threads=2 / sliced_threads=0 / slices=4 / nr=0 / decimate=1 / interlaced=0 / bluray_compat=1 / constrained_intra=0 / bframes=3 / b_pyramid=1 / b_adapt=2 / b_bias=0 / direct=3 / weightb=1 / open_gop=1 / weightp=1 / keyint=24 / keyint_min=1 / scenecut=20 / intra_refresh=0 / rc_lookahead=24 / rc=cbr / mbtree=0 / bitrate=35000 / ratetol=1.0 / qcomp=0.60 / qpmin=0 / qpmax=69 / qpstep=4 / vbv_maxrate=35000 / vbv_bufsize=30000 / nal_hrd=vbr / filler=0 / ip_ratio=1.40 / pb_ratio=1.30 / aq=1:0.50
  29. Language                                 : English
  30. Default                                  : No
  31. Forced                                   : No
  32. Color range                              : Limited
  33. Color primaries                          : BT.709
  34. Transfer characteristics                 : BT.709
  35. Matrix coefficients                      : BT.709
  36. Audio #1
  37. ID                                       : 2
  38. Format                                   : DTS XLL
  39. Format/Info                              : Digital Theater Systems
  40. Commercial name                          : DTS-HD Master Audio
  41. Codec ID                                 : A_DTS
  42. Duration                                 : 1 h 41 min
  43. Bit rate mode                            : Variable
  44. Bit rate                                 : 3 297 kb/s
  45. Channel(s)                               : 6 channels
  46. Channel layout                           : C L R Ls Rs LFE
  47. Sampling rate                            : 48.0 kHz
  48. Frame rate                               : 93.750 FPS (512 SPF)
  49. Bit depth                                : 24 bits
  50. Compression mode                         : Lossless
  51. Stream size                              : 2.35 GiB (9%)
  52. Title                                    : Cruising.1980.1080p.BluRay.REMUX.AVC.DTS-HD.MA.5.1-FGT
  53. Language                                 : English
  54. Default                                  : Yes
  55. Forced                                   : No
  56. Audio #2
  57. ID                                       : 3
  58. Format                                   : PCM
  59. Format settings                          : Little / Signed
  60. Codec ID                                 : A_PCM/INT/LIT
  61. Duration                                 : 1 h 41 min
  62. Bit rate mode                            : Constant
  63. Bit rate                                 : 2 304 kb/s
  64. Channel(s)                               : 2 channels
  65. Sampling rate                            : 48.0 kHz
  66. Frame rate                               : 30.000 FPS (1600 SPF)
  67. Bit depth                                : 24 bits
  68. Stream size                              : 1.64 GiB (6%)
  69. Title                                    : Cruising.1980.1080p.BluRay.REMUX.AVC.DTS-HD.MA.5.1-FGT
  70. Language                                 : English
  71. Default                                  : No
  72. Forced                                   : No
  73. Audio #3
  74. ID                                       : 4
  75. Format                                   : AC-3
  76. Format/Info                              : Audio Coding 3
  77. Commercial name                          : Dolby Digital
  78. Codec ID                                 : A_AC3
  79. Duration                                 : 1 h 41 min
  80. Bit rate mode                            : Constant
  81. Bit rate                                 : 192 kb/s
  82. Channel(s)                               : 2 channels
  83. Channel layout                           : L R
  84. Sampling rate                            : 48.0 kHz
  85. Frame rate                               : 31.250 FPS (1536 SPF)
  86. Bit depth                                : 16 bits
  87. Compression mode                         : Lossy
  88. Stream size                              : 140 MiB (1%)
  89. Title                                    : Cruising.1980.1080p.BluRay.REMUX.AVC.DTS-HD.MA.5.1-FGT
  90. Language                                 : English
  91. Service kind                             : Complete Main
  92. Default                                  : No
  93. Forced                                   : No
  94. Audio #4
  95. ID                                       : 5
  96. Format                                   : AC-3
  97. Format/Info                              : Audio Coding 3
  98. Commercial name                          : Dolby Digital
  99. Codec ID                                 : A_AC3
  100. Duration                                 : 1 h 41 min
  101. Bit rate mode                            : Constant
  102. Bit rate                                 : 192 kb/s
  103. Channel(s)                               : 2 channels
  104. Channel layout                           : L R
  105. Sampling rate                            : 48.0 kHz
  106. Frame rate                               : 31.250 FPS (1536 SPF)
  107. Bit depth                                : 16 bits
  108. Compression mode                         : Lossy
  109. Stream size                              : 140 MiB (1%)
  110. Title                                    : Cruising.1980.1080p.BluRay.REMUX.AVC.DTS-HD.MA.5.1-FGT
  111. Language                                 : English
  112. Service kind                             : Complete Main
  113. Default                                  : No
  114. Forced                                   : No
  115. Text
  116. ID                                       : 6
  117. Format                                   : PGS
  118. Muxing mode                              : zlib
  119. Codec ID                                 : S_HDMV/PGS
  120. Codec ID/Info                            : Picture based subtitle format used on BDs/HD-DVDs
  121. Duration                                 : 1 h 38 min
  122. Bit rate                                 : 27.8 kb/s
  123. Count of elements                        : 1670
  124. Stream size                              : 19.6 MiB (0%)
  125. Title                                    : English-PGS
  126. Language                                 : English
  127. Default                                  : Yes
  128. Forced                                   : No
  129. Menu
  130. 00:00:00.000                             : en:Chapter 01
  131. 00:07:31.492                             : en:Chapter 02
  132. 00:18:40.369                             : en:Chapter 03
  133. 00:24:45.442                             : en:Chapter 04
  134. 00:34:15.261                             : en:Chapter 05
  135. 00:41:31.614                             : en:Chapter 06
  136. 00:51:27.334                             : en:Chapter 07
  137. 01:01:34.774                             : en:Chapter 08
  138. 01:08:29.522                             : en:Chapter 09
  139. 01:16:09.606                             : en:Chapter 10
  140. 01:24:38.281                             : en:Chapter 11
  141. 01:32:57.488                             : en:Chapter 12
复制代码






                                       
                                       

                                       
                                       
                                       




回复

使用道具 举报

懒得打字嘛,点击右侧快捷回复 【右侧内容,后台自定义】
您需要登录后才可以回帖 登录 | 立即加入

本版积分规则

Archiver|小黑屋| 蓝光电影网 |网站地图

Copyright © 2021 Comsenz Inc. Powered by 蓝光电影网

蓝光电影网

本站内容由用户自主分享和转载自互联网,转载目的在于传递更多信息,并不代表本网赞同其观点和对其真实性负责。

如有侵权、违反国家法律政策行为,请联系我们,我们会第一时间及时清除和处理!

举报反馈邮箱:[email protected]

快速回复 返回顶部 返回列表