找回密码

蓝光电影网

查看: 10|回复: 0

[动作] 龙珠Z剧场版12:复活的融合!! 悟空和贝吉塔 Dragon.Ball.Z.Fusion.Reborn.1995.1080p.BluRay.x264-AERO 4.37GB

[复制链接]
蓝光币
519
发表于 2019-8-8 10:55:53 | 显示全部楼层 |阅读模式
[img]https://img1.doubanio.com/view/photo/l_ratio_poster/public/p2513668453.jpg[img]
◎译  名 龙珠Z戏院版12:新生的融合!! 悟空和贝吉塔 / Dragon Ball Z Movie 12
◎片  名 ドラゴンボール Z 劇場版: 復活のフュージョン!! 悟空とベジータ
◎年  代 1995
◎产  地 日本
◎类  别 行动 / 动画
◎语  言 日语
◎上映日期 1995-03-04
◎IMDb评分  7.7/10 from 8601 users
◎IMDb链接  http://www.imdb.com/title/tt0142236
◎豆瓣评分 7.8/10 from 1524 users
◎豆瓣链接 https://movie.douban.com/subject/3554902/
◎片  长 50分钟
◎导  演 山内重保
◎编  剧 小山高生 / 鸟山明
◎主  演 野泽雅子
       堀川亮
       草尾毅
       绿川光
       皆口裕子
       鹤弘美
       渡边菜生子
       乡里大辅

◎标  签 动画 | 龙珠 | 日本 | 戏院版 | 日本动画 | 鸟山明 | 1995 | 动漫
◎简  介  
  北银河正在举行冥界第一武术大会,孙悟空和来自西银河的排骨饭热战正酣。就在这时,冥界却出了乱子。阎王殿中,一位一心玩乐的小鬼失慎碰坏灵魂清洗装配,致使一切的邪气外泄,进而激发冥界庞大紊乱。阎王被困在结界中不得转动,而人世也遭到影响,一时候鬼魅横行,连死去很久的弗利萨军团也再次新生。正在对决的悟空和排骨饭感知到冥界的变化,因而中断角逐前往为阎王得救。他们碰到一个胖乎乎却具有强大气力和怨念的怪物,即使数度变身的孙悟空也何如它不得。正在危难时辰,早已堕入天堂的贝吉塔实时赶来,最强的龙珠战士再次聚会……
  本片为《龙珠Z》戏院版。
  1. Video
  2. ID                                       : 1
  3. Format                                   : AVC
  4. Format/Info                              : Advanced Video Codec
  5. Format profile                           : [email protected]
  6. Format settings                          : CABAC / 4 Ref Frames
  7. Format settings, CABAC                   : Yes
  8. Format settings, Reference frames        : 4 frames
  9. Muxing mode                              : Header stripping
  10. Codec ID                                 : V_MPEG4/ISO/AVC
  11. Duration                                 : 50 min 42 s
  12. Bit rate                                 : 11.1 Mb/s
  13. Width                                    : 1 920 pixels
  14. Height                                   : 1 080 pixels
  15. Display aspect ratio                     : 16:9
  16. Frame rate mode                          : Constant
  17. Frame rate                               : 23.976 (24000/1001) FPS
  18. Color space                              : YUV
  19. Chroma subsampling                       : 4:2:0
  20. Bit depth                                : 8 bits
  21. Scan type                                : Progressive
  22. Bits/(Pixel*Frame)                       : 0.223
  23. Stream size                              : 3.83 GiB (88%)
  24. Writing library                          : x264 core 98 r1649 c54c47d
  25. Encoding settings                        : cabac=1 / ref=4 / deblock=1:0:0 / analyse=0x3:0x133 / me=umh / subme=7 / psy=1 / psy_rd=1.00:0.00 / mixed_ref=1 / me_range=16 / chroma_me=1 / trellis=1 / 8x8dct=1 / cqm=0 / deadzone=21,11 / fast_pskip=0 / chroma_qp_offset=-2 / threads=6 / sliced_threads=0 / nr=0 / decimate=1 / interlaced=0 / constrained_intra=0 / bframes=3 / b_pyramid=2 / b_adapt=1 / b_bias=0 / direct=1 / weightb=1 / weightp=2 / keyint=250 / keyint_min=25 / scenecut=40 / intra_refresh=0 / rc_lookahead=40 / rc=2pass / mbtree=1 / bitrate=11070 / ratetol=1.0 / qcomp=0.60 / qpmin=10 / qpmax=51 / qpstep=4 / cplxblur=20.0 / qblur=0.5 / ip_ratio=1.40 / aq=1:1.00
  26. Language                                 : English
  27. Default                                  : Yes
  28. Forced                                   : No
  29. Audio #1
  30. ID                                       : 2
  31. Format                                   : AC-3
  32. Format/Info                              : Audio Coding 3
  33. Commercial name                          : Dolby Digital
  34. Muxing mode                              : Header stripping
  35. Codec ID                                 : A_AC3
  36. Duration                                 : 50 min 42 s
  37. Bit rate mode                            : Constant
  38. Bit rate                                 : 640 kb/s
  39. Channel(s)                               : 6 channels
  40. Channel layout                           : L R C LFE Ls Rs
  41. Sampling rate                            : 48.0 kHz
  42. Frame rate                               : 31.250 FPS (1536 SPF)
  43. Bit depth                                : 16 bits
  44. Compression mode                         : Lossy
  45. Stream size                              : 232 MiB (5%)
  46. Language                                 : English
  47. Service kind                             : Complete Main
  48. Default                                  : No
  49. Forced                                   : No
  50. Audio #2
  51. ID                                       : 3
  52. Format                                   : AC-3
  53. Format/Info                              : Audio Coding 3
  54. Commercial name                          : Dolby Digital
  55. Muxing mode                              : Header stripping
  56. Codec ID                                 : A_AC3
  57. Duration                                 : 50 min 42 s
  58. Bit rate mode                            : Constant
  59. Bit rate                                 : 640 kb/s
  60. Channel(s)                               : 1 channel
  61. Channel layout                           : C
  62. Sampling rate                            : 48.0 kHz
  63. Frame rate                               : 31.250 FPS (1536 SPF)
  64. Bit depth                                : 16 bits
  65. Compression mode                         : Lossy
  66. Stream size                              : 232 MiB (5%)
  67. Language                                 : Japanese
  68. Service kind                             : Complete Main
  69. Default                                  : Yes
  70. Forced                                   : No
  71. Text
  72. ID                                       : 4
  73. Format                                   : UTF-8
  74. Codec ID                                 : S_TEXT/UTF8
  75. Codec ID/Info                            : UTF-8 Plain Text
  76. Language                                 : English
  77. Default                                  : Yes
  78. Forced                                   : No
复制代码






                                       
                                       

                                       
                                       
                                       




回复

使用道具 举报

懒得打字嘛,点击右侧快捷回复 【右侧内容,后台自定义】
您需要登录后才可以回帖 登录 | 立即加入

本版积分规则

Archiver|小黑屋| 蓝光电影网 |网站地图

Copyright © 2021 Comsenz Inc. Powered by 蓝光电影网

蓝光电影网

本站内容由用户自主分享和转载自互联网,转载目的在于传递更多信息,并不代表本网赞同其观点和对其真实性负责。

如有侵权、违反国家法律政策行为,请联系我们,我们会第一时间及时清除和处理!

举报反馈邮箱:[email protected]

快速回复 返回顶部 返回列表