找回密码

蓝光电影网

查看: 7|回复: 0

[其他] 夺魄冤魂/低能儿 The.Changeling.1980.1080p.BluRay.x264.DTS-FGT 9.71GB

[复制链接]
蓝光币
519
发表于 2020-9-20 16:14:54 | 显示全部楼层 |阅读模式


◎译  名 夺魄冤魂/低能儿/夺魂冤灵/罪行尽头站
◎片  名 The Changeling
◎年  代 1980
◎产  地 加拿大
◎类  别 悬疑 / 惊悚 / 可骇
◎语  言 英语
◎上映日期 1980-03-28
◎IMDb评分  7.2/10 from 29263 users
◎IMDb链接  https://www.imdb.com/title/tt0080516/
◎豆瓣评分 7.2/10 from 696 users
◎豆瓣链接 https://movie.douban.com/subject/1422279/
◎片  长 107 分钟
◎导  演 彼得·梅达克 Peter Medak
◎编  剧 戴安娜·马多克斯 Diana Maddox
◎主  演 乔治·C·斯科特 George C. Scott
       翠施·范·德沃尔 Trish Van Devere
       茂文·道格拉斯 Melvyn Douglas
       吉恩·马修 Jean Marsh
       Voldi Way
       Louis Zorich
       马德琳·舍伍德 Madeleine Sherwood
       安东尼娅·雷伊 Antonia Rey
       安娜·哈根 Anna Hagan
       巴瑞·摩司 Barry Morse
       Sammy Smith
       弗朗西丝·海兰 Frances Hyland
       约翰·科里考斯 John Colicos
       埃里克·克里斯马斯 Eric Christmas
       Chris Gampel
◎标  签 可骇 | 加拿大 | 惊悚 | 悬疑 | 1980 | 加拿大电影 | 1980S | 电影
◎简  介


  作曲家以及音乐学院教授约翰?罗素(George C. Scott 饰)和妻后代儿共度假期,但是突如其来的车祸夺去妻女的人命。孤独哀痛的约翰分开纽约,来到西雅图一所大学任教。他在当地找到一栋已经余暇12年之久的旧屋子,虽然陈旧,但平静的情况正是和约翰的音乐创作。
  
  但搬入后他却发现,每当早晨6点左右屋子内就会传出希奇的声音,未几后约翰更惊骇地意想到,屋子里居然还住着一个儿童的鬼魂。在鬼魂的表示下,约翰起头成心识的探讨这栋屋子背后所隐藏的奥秘……
  1. Video
  2. ID                                       : 1
  3. Format                                   : AVC
  4. Format/Info                              : Advanced Video Codec
  5. Format profile                           : [email protected]
  6. Format settings                          : CABAC / 4 Ref Frames
  7. Format settings, CABAC                   : Yes
  8. Format settings, ReFrames                : 4 frames
  9. Codec ID                                 : V_MPEG4/ISO/AVC
  10. Duration                                 : 1 h 46 min
  11. Bit rate                                 : 11.5 Mb/s
  12. Width                                    : 1 920 pixels
  13. Height                                   : 1 036 pixels
  14. Display aspect ratio                     : 1.85:1
  15. Frame rate mode                          : Constant
  16. Frame rate                               : 23.976 (24000/1001/189150) FPS
  17. Color space                              : YUV
  18. Chroma subsampling                       : 4:2:0
  19. Bit depth                                : 8 bits
  20. Scan type                                : Progressive
  21. Bits/(Pixel*Frame)                       : 0.241
  22. Stream size                              : 8.58 GiB (88%)
  23. Title                                    : The.Changeling.1980.1080p.BluRay.x264.DTS-FGT
  24. Writing library                          : x264 core 148 r2795M aaa9aa8
  25. Encoding settings                        : cabac=1 / ref=4 / deblock=1:-2:-2 / analyse=0x3:0x113 / me=umh / subme=9 / psy=1 / psy_rd=1.00:0.15 / mixed_ref=1 / me_range=16 / chroma_me=1 / trellis=2 / 8x8dct=1 / cqm=0 / deadzone=21,11 / fast_pskip=1 / chroma_qp_offset=-3 / threads=24 / lookahead_threads=3 / sliced_threads=0 / nr=0 / decimate=1 / interlaced=0 / bluray_compat=0 / constrained_intra=0 / bframes=3 / b_pyramid=2 / b_adapt=1 / b_bias=0 / direct=3 / weightb=1 / open_gop=0 / weightp=2 / keyint=250 / keyint_min=25 / scenecut=40 / intra_refresh=0 / rc_lookahead=50 / rc=2pass / mbtree=1 / bitrate=11500 / ratetol=1.0 / qcomp=0.60 / qpmin=0 / qpmax=69 / qpstep=4 / cplxblur=20.0 / qblur=0.5 / vbv_maxrate=31250 / vbv_bufsize=31250 / nal_hrd=none / filler=0 / ip_ratio=1.40 / aq=1:1.00
  26. Language                                 : English
  27. Default                                  : Yes
  28. Forced                                   : No
  29. Audio
  30. ID                                       : 2
  31. Format                                   : DTS
  32. Format/Info                              : Digital Theater Systems
  33. Codec ID                                 : A_DTS
  34. Duration                                 : 1 h 46 min
  35. Bit rate mode                            : Constant
  36. Bit rate                                 : 1 509 kb/s
  37. Channel(s)                               : 6 channels
  38. Channel positions                        : Front: L C R, Side: L R, LFE
  39. Sampling rate                            : 48.0 kHz
  40. Frame rate                               : 93.750 FPS (512 SPF)
  41. Bit depth                                : 16 bits
  42. Compression mode                         : Lossy
  43. Stream size                              : 1.12 GiB (12%)
  44. Title                                    : The.Changeling.1980.1080p.BluRay.x264.DTS-FGT
  45. Language                                 : English
  46. Default                                  : Yes
  47. Forced                                   : No
  48. Text
  49. ID                                       : 3
  50. Format                                   : UTF-8
  51. Codec ID                                 : S_TEXT/UTF8
  52. Codec ID/Info                            : UTF-8 Plain Text
  53. Duration                                 : 1 h 40 min
  54. Bit rate                                 : 34 b/s
  55. Count of elements                        : 989
  56. Stream size                              : 25.6 KiB (0%)
  57. Title                                    : English-SRT
  58. Language                                 : English
  59. Default                                  : Yes
  60. Forced                                   : No
  61. Menu
  62. 00:00:00.000                             : en:Chapters 1
  63. 00:05:08.016                             : en:Chapters 2
  64. 00:16:00.334                             : en:Chapters 3
  65. 00:24:56.412                             : en:Chapters 4
  66. 00:45:56.170                             : en:Chapters 5
  67. 01:00:44.182                             : en:Chapters 6
  68. 01:17:16.048                             : en:Chapters 6
  69. 01:34:02.804                             : en:Chapters 7
  70. 01:43:53.144                             : en:Chapters 9
复制代码






                                       
                                       

                                       
                                       
                                       




回复

使用道具 举报

懒得打字嘛,点击右侧快捷回复 【右侧内容,后台自定义】
您需要登录后才可以回帖 登录 | 立即加入

本版积分规则

Archiver|小黑屋| 蓝光电影网 |网站地图

Copyright © 2021 Comsenz Inc. Powered by 蓝光电影网

蓝光电影网

本站内容由用户自主分享和转载自互联网,转载目的在于传递更多信息,并不代表本网赞同其观点和对其真实性负责。

如有侵权、违反国家法律政策行为,请联系我们,我们会第一时间及时清除和处理!

举报反馈邮箱:[email protected]

快速回复 返回顶部 返回列表