找回密码

蓝光电影网

查看: 16|回复: 0

[剧情] 绿洲 Oasis.2002.KOREAN.1080p.BluRay.REMUX.AVC.DTS-HD.MA.5.1-FGT 31.29GB

[复制链接]
蓝光币
515
发表于 2019-8-29 15:14:03 | 显示全部楼层 |阅读模式


◎译  名 绿洲 / Oasis / 爱的绿洲 / 绿洲曳影
◎片  名 ????
◎年  代 2002
◎产  地 韩国
◎类  别 剧情 / 恋爱
◎语  言 韩语
◎上映日期 2002-08-09(韩国)
◎IMDb评分  7.9/10 from 7015 users
◎IMDb链接  http://www.imdb.com/title/tt0320193
◎豆瓣评分 8.5/10 from 22632 users
◎豆瓣链接 https://movie.douban.com/subject/1299582/
◎片  长 132分钟
◎导  演 李沧东 Chang-dong Lee
◎编  剧 李沧东 Chang-dong Lee
◎主  演 薛景求 Kyung-gu Sol
       文素丽 So-ri Moon
       安内相 Nae-sang Ahn
       柳昇完 Seung-wan Ryoo
       金贞久

◎标  签 李沧东 | 韩国 | 韩国电影 | 恋爱 | 剧情 | 薛景求 | 2002 | 文素利
◎简  介  
  刑满开释的洪忠都(薛景求饰)出狱后,家人对他横加排挤,而他之所以被判入狱,只是为了顶替哥哥的罪名。以后心冷意凉的他,来到车祸死者的居处造访家属,碰到死者的女儿韩恭洙(文素利饰)——一位重度脑麻痹患者,面庞扭曲、手脚抽搐。但忠都却被她吸引,并在感动下做出大胆之举。
  但在意外事务后,两人相互都萌生了感情忖量,孤独的心灵就此渐渐挨近。他们看似身心不甚健全的非正凡人,却遭受着赤裸裸的现实不公。不外,命运并没有就此放过嘲谑他们的机遇。
◎获奖情况  
  第59届威尼斯电影节(2002)
  主比赛单元 金狮奖 (提名) 李沧东
  费比西奖(国际影评人同盟奖) 比赛单元费比西奖 李沧东
  马塞洛·马斯托依安尼奖(新锐演员奖) 文素丽
  天主教文化奖 李沧东
  出格导演奖 李沧东
  1. Video
  2. ID                                       : 1
  3. Format                                   : AVC
  4. Format/Info                              : Advanced Video Codec
  5. Format profile                           : [email protected]
  6. Format settings                          : CABAC / 4 Ref Frames
  7. Format settings, CABAC                   : Yes
  8. Format settings, Reference frames        : 4 frames
  9. Format settings, GOP                     : M=3, N=24
  10. Codec ID                                 : V_MPEG4/ISO/AVC
  11. Duration                                 : 2 h 13 min
  12. Bit rate mode                            : Variable
  13. Bit rate                                 : 30.0 Mb/s
  14. Maximum bit rate                         : 36.0 Mb/s
  15. Width                                    : 1 920 pixels
  16. Height                                   : 1 080 pixels
  17. Display aspect ratio                     : 16:9
  18. Frame rate mode                          : Constant
  19. Frame rate                               : 23.976 (24000/1001) FPS
  20. Standard                                 : NTSC
  21. Color space                              : YUV
  22. Chroma subsampling                       : 4:2:0
  23. Bit depth                                : 8 bits
  24. Scan type                                : Progressive
  25. Bits/(Pixel*Frame)                       : 0.603
  26. Stream size                              : 27.9 GiB (89%)
  27. Title                                    : Oasis.2002.KOREAN.1080p.BluRay.REMUX.AVC.DTS-HD.MA.5.1-FGT
  28. Language                                 : English
  29. Default                                  : No
  30. Forced                                   : No
  31. Color range                              : Limited
  32. Color primaries                          : BT.709
  33. Transfer characteristics                 : BT.709
  34. Matrix coefficients                      : BT.709
  35. Audio #1
  36. ID                                       : 2
  37. Format                                   : DTS XLL
  38. Format/Info                              : Digital Theater Systems
  39. Commercial name                          : DTS-HD Master Audio
  40. Codec ID                                 : A_DTS
  41. Duration                                 : 2 h 13 min
  42. Bit rate mode                            : Variable
  43. Bit rate                                 : 3 378 kb/s
  44. Channel(s)                               : 6 channels
  45. Channel layout                           : C L R Ls Rs LFE
  46. Sampling rate                            : 48.0 kHz
  47. Frame rate                               : 93.750 FPS (512 SPF)
  48. Bit depth                                : 24 bits
  49. Compression mode                         : Lossless
  50. Stream size                              : 3.14 GiB (10%)
  51. Title                                    : Oasis.2002.KOREAN.1080p.BluRay.REMUX.AVC.DTS-HD.MA.5.1-FGT
  52. Language                                 : Korean
  53. Default                                  : Yes
  54. Forced                                   : No
  55. Audio #2
  56. ID                                       : 3
  57. Format                                   : AC-3
  58. Format/Info                              : Audio Coding 3
  59. Commercial name                          : Dolby Digital
  60. Codec ID                                 : A_AC3
  61. Duration                                 : 2 h 13 min
  62. Bit rate mode                            : Constant
  63. Bit rate                                 : 192 kb/s
  64. Channel(s)                               : 2 channels
  65. Channel layout                           : L R
  66. Sampling rate                            : 48.0 kHz
  67. Frame rate                               : 31.250 FPS (1536 SPF)
  68. Bit depth                                : 16 bits
  69. Compression mode                         : Lossy
  70. Stream size                              : 183 MiB (1%)
  71. Title                                    : Oasis.2002.KOREAN.1080p.BluRay.REMUX.AVC.DTS-HD.MA.5.1-FGT
  72. Language                                 : Korean
  73. Service kind                             : Complete Main
  74. Default                                  : No
  75. Forced                                   : No
  76. Text #1
  77. ID                                       : 4
  78. Format                                   : PGS
  79. Muxing mode                              : zlib
  80. Codec ID                                 : S_HDMV/PGS
  81. Codec ID/Info                            : Picture based subtitle format used on BDs/HD-DVDs
  82. Duration                                 : 2 h 10 min
  83. Bit rate                                 : 20.2 kb/s
  84. Count of elements                        : 2081
  85. Stream size                              : 18.8 MiB (0%)
  86. Title                                    : English-PGS
  87. Language                                 : English
  88. Default                                  : Yes
  89. Forced                                   : No
  90. Text #2
  91. ID                                       : 5
  92. Format                                   : PGS
  93. Muxing mode                              : zlib
  94. Codec ID                                 : S_HDMV/PGS
  95. Codec ID/Info                            : Picture based subtitle format used on BDs/HD-DVDs
  96. Duration                                 : 2 h 6 min
  97. Bit rate                                 : 18.3 kb/s
  98. Count of elements                        : 2498
  99. Stream size                              : 16.5 MiB (0%)
  100. Title                                    : Korean-PGS
  101. Language                                 : Korean
  102. Default                                  : No
  103. Forced                                   : No
  104. Text #3
  105. ID                                       : 6
  106. Format                                   : PGS
  107. Muxing mode                              : zlib
  108. Codec ID                                 : S_HDMV/PGS
  109. Codec ID/Info                            : Picture based subtitle format used on BDs/HD-DVDs
  110. Duration                                 : 2 h 7 min
  111. Bit rate                                 : 13.3 kb/s
  112. Count of elements                        : 2210
  113. Stream size                              : 12.0 MiB (0%)
  114. Title                                    : Japanese-PGS
  115. Language                                 : Japanese
  116. Default                                  : No
  117. Forced                                   : No
  118. Menu
  119. 00:00:00.000                             : en:Chapter 01
  120. 00:09:34.824                             : en:Chapter 02
  121. 00:15:16.999                             : en:Chapter 03
  122. 00:25:10.926                             : en:Chapter 04
  123. 00:32:39.040                             : en:Chapter 05
  124. 00:41:22.229                             : en:Chapter 06
  125. 00:49:57.411                             : en:Chapter 07
  126. 00:56:31.554                             : en:Chapter 08
  127. 01:03:05.448                             : en:Chapter 09
  128. 01:08:18.344                             : en:Chapter 10
  129. 01:18:42.426                             : en:Chapter 11
  130. 01:20:58.645                             : en:Chapter 12
  131. 01:23:27.794                             : en:Chapter 13
  132. 01:35:06.283                             : en:Chapter 14
  133. 01:40:11.505                             : en:Chapter 15
  134. 01:48:27.959                             : en:Chapter 16
  135. 01:56:02.372                             : en:Chapter 17
  136. 02:08:22.027                             : en:Chapter 18
复制代码






                                       
                                       

                                       
                                       
                                       




回复

使用道具 举报

懒得打字嘛,点击右侧快捷回复 【右侧内容,后台自定义】
您需要登录后才可以回帖 登录 | 立即加入

本版积分规则

Archiver|小黑屋| 蓝光电影网 |网站地图

Copyright © 2021 Comsenz Inc. Powered by 蓝光电影网

蓝光电影网

本站内容由用户自主分享和转载自互联网,转载目的在于传递更多信息,并不代表本网赞同其观点和对其真实性负责。

如有侵权、违反国家法律政策行为,请联系我们,我们会第一时间及时清除和处理!

举报反馈邮箱:[email protected]

快速回复 返回顶部 返回列表