找回密码

蓝光电影网

查看: 97|回复: 0

[动作] 校园大逃杀/杀戮校园 Run.Hide.Fight.2020.1080p.BluRay.REMUX.AVC.DTS-HD.MA.5.1-FGT 20.32GB

[复制链接]
蓝光币
515
发表于 2021-8-2 08:41:56 | 显示全部楼层 |阅读模式


◎译  名 校园大逃杀/杀戮校园/校园大流亡
◎片  名 Run Hide Fight
◎年  代 2020
◎产  地 美国
◎类  别 行动 / 惊悚 / 犯罪
◎语  言 英语
◎上映日期 2020-09-10(威尼斯电影节) / 2021-01-14(美国)
◎豆瓣评分 5.9/10 from 3472 users
◎豆瓣链接 https://movie.douban.com/subject/34930801/
◎片  长 109分钟
◎导  演 凯尔·兰金 Kyle Rankin
◎编  剧 凯尔·兰金 Kyle Rankin
◎主  演 伊莎贝尔·梅 Isabel May
       伊莱·布朗 Eli Brown
       奥利·索罗坦 Olly Sholotan
       托马斯·简 Thomas Jane
       拉达·米切尔 Radha Mitchell
       特里特·威廉斯 Treat Williams
       赛勒斯·阿诺德 Cyrus Arnold
       布里顿·瑟尔 Britton Sear
       芭芭拉·克兰普顿 Barbara Crampton
       乔尔·迈克利 Joel Michaely
       Gerardo Davila Gerardo Davila
       玛丽·迪斯 Mary Deese
       小詹姆斯·希利 James Healy Jr.
        Mya Holloway
        Zachary Le Vey
       CG刘易斯 CG Lewis
       布赖恩·马西 Bryan Massey
        Amelia Galindo
       肯妮莎·汤普森 Kenneisha Thompson
       辛迪·维拉 Cindy Vela
       凯特·希金斯 Kate Higgins
◎标  签 犯罪 | 美国 | 行动 | 惊悚 | 美国电影 | 2020 | 电影 | 可骇
◎简  介


  《Night Of The Living Deb》和《The Witch Files》背后的电影人凯尔·兰金(Kyle Rankin)完成了一项奥秘项目“Run Hide Fight”,该项目报告的是一个17岁的女孩,她必须用自己的聪明才能在黉舍拍摄中保存。现在,它将成为Rebeller公司刊行的第一部电影,Cinestate刊行了该电影来会商所谓的“不法内容”空间中的电影,重点关注好莱坞轻忽的范例以及好莱坞惧怕的剧本。
  1. Video
  2. ID                                       : 1
  3. ID in the original source medium         : 4113 (0x1011)
  4. Format                                   : AVC
  5. Format/Info                              : Advanced Video Codec
  6. Format profile                           : [email protected]
  7. Format settings                          : CABAC / 4 Ref Frames
  8. Format settings, CABAC                   : Yes
  9. Format settings, Reference frames        : 4 frames
  10. Codec ID                                 : V_MPEG4/ISO/AVC
  11. Duration                                 : 1 h 49 min
  12. Bit rate mode                            : Variable
  13. Bit rate                                 : 20.5 Mb/s
  14. Maximum bit rate                         : 35.0 Mb/s
  15. Width                                    : 1 920 pixels
  16. Height                                   : 1 080 pixels
  17. Display aspect ratio                     : 16:9
  18. Frame rate mode                          : Constant
  19. Frame rate                               : 23.976 (24000/1001/189150) FPS
  20. Standard                                 : NTSC
  21. Color space                              : YUV
  22. Chroma subsampling                       : 4:2:0
  23. Bit depth                                : 8 bits
  24. Scan type                                : Progressive
  25. Bits/(Pixel*Frame)                       : 0.413
  26. Stream size                              : 15.7 GiB (77%)
  27. Language                                 : English
  28. Default                                  : No
  29. Forced                                   : No
  30. Color range                              : Limited
  31. Color primaries                          : BT.709
  32. Transfer characteristics                 : BT.709
  33. Matrix coefficients                      : BT.709
  34. Original source medium                   : Blu-ray
  35. Audio #1
  36. ID                                       : 2
  37. ID in the original source medium         : 4354 (0x1102)
  38. Format                                   : DTS XLL
  39. Format/Info                              : Digital Theater Systems
  40. Commercial name                          : DTS-HD Master Audio
  41. Codec ID                                 : A_DTS
  42. Duration                                 : 1 h 49 min
  43. Bit rate mode                            : Variable
  44. Bit rate                                 : 1 986 kb/s
  45. Channel(s)                               : 6 channels
  46. Channel layout                           : C L R Ls Rs LFE
  47. Sampling rate                            : 48.0 kHz
  48. Frame rate                               : 93.750 FPS (512 SPF)
  49. Bit depth                                : 16 bits
  50. Compression mode                         : Lossless
  51. Stream size                              : 1.52 GiB (7%)
  52. Title                                    : DTS-HD MA 5.1
  53. Language                                 : English
  54. Default                                  : Yes
  55. Forced                                   : No
  56. Original source medium                   : Blu-ray
  57. Audio #2
  58. ID                                       : 3
  59. ID in the original source medium         : 4355 (0x1103)
  60. Format                                   : DTS XLL
  61. Format/Info                              : Digital Theater Systems
  62. Commercial name                          : DTS-HD Master Audio
  63. Codec ID                                 : A_DTS
  64. Duration                                 : 1 h 49 min
  65. Bit rate mode                            : Variable
  66. Bit rate                                 : 1 021 kb/s
  67. Channel(s)                               : 2 channels
  68. Channel layout                           : L R
  69. Sampling rate                            : 48.0 kHz
  70. Frame rate                               : 93.750 FPS (512 SPF)
  71. Bit depth                                : 16 bits
  72. Compression mode                         : Lossless
  73. Stream size                              : 799 MiB (4%)
  74. Title                                    : DTS-HD MA 2.0
  75. Language                                 : English
  76. Default                                  : No
  77. Forced                                   : No
  78. Original source medium                   : Blu-ray
  79. Audio #3
  80. ID                                       : 4
  81. ID in the original source medium         : 4352 (0x1100)
  82. Format                                   : DTS XLL
  83. Format/Info                              : Digital Theater Systems
  84. Commercial name                          : DTS-HD Master Audio
  85. Codec ID                                 : A_DTS
  86. Duration                                 : 1 h 49 min
  87. Bit rate mode                            : Variable
  88. Bit rate                                 : 1 993 kb/s
  89. Channel(s)                               : 6 channels
  90. Channel layout                           : C L R Ls Rs LFE
  91. Sampling rate                            : 48.0 kHz
  92. Frame rate                               : 93.750 FPS (512 SPF)
  93. Bit depth                                : 16 bits
  94. Compression mode                         : Lossless
  95. Stream size                              : 1.52 GiB (7%)
  96. Title                                    : DTS-HD MA 5.1
  97. Language                                 : French
  98. Default                                  : Yes
  99. Forced                                   : No
  100. Original source medium                   : Blu-ray
  101. Audio #4
  102. ID                                       : 5
  103. ID in the original source medium         : 4353 (0x1101)
  104. Format                                   : DTS XLL
  105. Format/Info                              : Digital Theater Systems
  106. Commercial name                          : DTS-HD Master Audio
  107. Codec ID                                 : A_DTS
  108. Duration                                 : 1 h 49 min
  109. Bit rate mode                            : Variable
  110. Bit rate                                 : 1 013 kb/s
  111. Channel(s)                               : 2 channels
  112. Channel layout                           : L R
  113. Sampling rate                            : 48.0 kHz
  114. Frame rate                               : 93.750 FPS (512 SPF)
  115. Bit depth                                : 16 bits
  116. Compression mode                         : Lossless
  117. Stream size                              : 793 MiB (4%)
  118. Title                                    : DTS-HD MA 2.0
  119. Language                                 : French
  120. Default                                  : No
  121. Forced                                   : No
  122. Original source medium                   : Blu-ray
  123. Text #1
  124. ID                                       : 6
  125. Format                                   : UTF-8
  126. Codec ID                                 : S_TEXT/UTF8
  127. Codec ID/Info                            : UTF-8 Plain Text
  128. Duration                                 : 1 h 40 min
  129. Bit rate                                 : 62 b/s
  130. Count of elements                        : 1596
  131. Stream size                              : 45.8 KiB (0%)
  132. Title                                    : SRT
  133. Language                                 : English
  134. Default                                  : Yes
  135. Forced                                   : No
  136. Text #2
  137. ID                                       : 7
  138. Format                                   : UTF-8
  139. Codec ID                                 : S_TEXT/UTF8
  140. Codec ID/Info                            : UTF-8 Plain Text
  141. Duration                                 : 1 h 47 min
  142. Bit rate                                 : 50 b/s
  143. Count of elements                        : 1308
  144. Stream size                              : 39.5 KiB (0%)
  145. Title                                    : SRT
  146. Language                                 : French
  147. Default                                  : No
  148. Forced                                   : No
  149. Text #3
  150. ID                                       : 8
  151. ID in the original source medium         : 4608 (0x1200)
  152. Format                                   : PGS
  153. Muxing mode                              : zlib
  154. Codec ID                                 : S_HDMV/PGS
  155. Codec ID/Info                            : Picture based subtitle format used on BDs/HD-DVDs
  156. Duration                                 : 1 h 47 min
  157. Bit rate                                 : 21.4 kb/s
  158. Count of elements                        : 2616
  159. Stream size                              : 16.5 MiB (0%)
  160. Language                                 : French
  161. Default                                  : No
  162. Forced                                   : No
  163. Original source medium                   : Blu-ray
  164. Menu
  165. 00:00:00.000                             : Chapter 01
  166. 00:16:51.301                             : Chapter 02
  167. 00:36:57.924                             : Chapter 03
  168. 00:54:51.788                             : Chapter 04
  169. 01:14:09.695                             : Chapter 05
  170. 01:31:16.262                             : Chapter 06
复制代码





                                       
                                       

                                       
                                       
                                       




回复

使用道具 举报

懒得打字嘛,点击右侧快捷回复 【右侧内容,后台自定义】
您需要登录后才可以回帖 登录 | 立即加入

本版积分规则

Archiver|小黑屋| 蓝光电影网 |网站地图

Copyright © 2021 Comsenz Inc. Powered by 蓝光电影网

蓝光电影网

本站内容由用户自主分享和转载自互联网,转载目的在于传递更多信息,并不代表本网赞同其观点和对其真实性负责。

如有侵权、违反国家法律政策行为,请联系我们,我们会第一时间及时清除和处理!

举报反馈邮箱:[email protected]

快速回复 返回顶部 返回列表