找回密码

蓝光电影网

查看: 39|回复: 0

[喜剧] 玩具总动员4/反斗奇兵4 Toy.Story.4.2019.1080p.BluRay.REMUX.AVC.DTS-HD.MA.TrueHD.7.1.Atmos-FGT 27.31GB

[复制链接]
蓝光币
511
发表于 2019-9-30 02:52:06 | 显示全部楼层 |阅读模式


◎译  名 玩具总带动4 / 反斗奇兵4(港)
◎片  名 Toy Story 4
◎年  代 2019
◎产  地 美国
◎类  别 笑剧 / 动画 / 奇异
◎语  言 英语
◎上映日期 2019-06-21(美国/中国大陆)
◎IMDb评分  8.1/10 from 89180 users
◎IMDb链接  http://www.imdb.com/title/tt1979376
◎豆瓣评分 8.8/10 from 116747 users
◎豆瓣链接 https://movie.douban.com/subject/6850547/
◎片  长 100分钟
◎导  演 乔什·库雷 Josh Cooley
◎编  剧 约翰·拉塞特 John Lasseter / 安德鲁·斯坦顿 Andrew Stanton / 彼特·道格特 Pete Docter / 李·昂克里奇 Lee Unkrich / 威尔·麦克马克 Will McCormack / 史黛芬妮·福尔松 Stephany Folsom / C·S·安德森 C.S. Anderson
◎主  演 汤姆·汉克斯 Tom Hanks
       蒂姆·艾伦 Tim Allen
       安妮·波茨 Annie Potts
       托尼·海尔 Tony Hale
       科甘-迈克尔·凯 Keegan-Michael Key
       玛德琳·麦格劳 Madeleine McGraw
       克里斯蒂娜·亨德里克斯 Christina Hendricks
       乔丹·皮尔 Jordan Peele
       基努·里维斯 Keanu Reeves
       松村艾丽 Ally Maki
       杰伊·埃尔南德斯 Jay Hernandez
       罗里·艾伦 Lori Alan
       琼·库萨克 Joan Cusack
       邦尼·亨特 Bonnie Hunt
       克里斯汀·沙尔 Kristen Schaal
       华莱士·肖恩 Wallace Shawn
       约翰·拉岑贝格 John Ratzenberger
       布莱克·克拉克 Blake Clark
       琼·斯奎布 June Squibb
       卡尔·韦瑟斯 Carl Weathers
       唐·里克斯 Don Rickles
       杰夫·格尔林 Jeff Garlin
       朱莉安娜·汉森 Juliana Hansen
       爱丝黛儿·哈里斯 Estelle Harris
       劳里·梅特卡夫 Laurie Metcalf
       史蒂夫·波赛尔 Steve Purcell
       梅尔·布鲁克斯 Mel Brooks
       艾伦·欧朋海默 Alan Oppenheimer
       卡罗尔·博内特 Carol Burnett
       贝蒂·怀特 Betty White
       卡尔·雷纳 Carl Reiner
       比尔·哈德尔 Bill Hader
       帕特丽夏·阿奎特 Patricia Arquette
       提摩西·道尔顿 Timothy Dalton
       弗利 Flea
       梅丽莎·维拉斯诺 Melissa Villase?or
       杰夫·皮金 Jeff Pidgeon
       约翰·莫里斯 John Morris

◎标  签 皮克斯 | 动画 | 迪士尼 | 温情 | 美国 | 童年 | 2019 | 长大
◎简  介  
  胡迪深知自己在这个天下上的使命,就是照顾他的仆人,不管是本来的安迪还是新仆人邦妮。当邦妮将不情愿成为玩具的“叉叉”带回家时,胡迪又担起了教导叉叉接管自己新身份的义务。 但是当邦妮将一切玩具带上房车家庭观光时,胡迪与伙伴们将配合踏上全新的冒险之旅,明白房间里面的天下有多广漠,甚至偶遇老朋友牧羊女。在多年的单独闯荡中,牧羊女已经变得酷爱冒险,不再只是一个精美的洋娃娃。正当胡迪和牧羊女发现相互对玩具的使命的意义截然不同时,他们很称心识到更大的威胁行将到来……
  1. Video
  2. ID                                       : 1
  3. Format                                   : AVC
  4. Format/Info                              : Advanced Video Codec
  5. Format profile                           : [email protected]
  6. Format settings                          : CABAC / 4 Ref Frames
  7. Format settings, CABAC                   : Yes
  8. Format settings, Reference frames        : 4 frames
  9. Format settings, GOP                     : M=1, N=12
  10. Codec ID                                 : V_MPEG4/ISO/AVC
  11. Duration                                 : 1 h 40 min
  12. Bit rate mode                            : Variable
  13. Bit rate                                 : 23.6 Mb/s
  14. Maximum bit rate                         : 29.6 Mb/s
  15. Width                                    : 1 920 pixels
  16. Height                                   : 1 080 pixels
  17. Display aspect ratio                     : 16:9
  18. Frame rate mode                          : Constant
  19. Frame rate                               : 23.976 (24000/1001) FPS
  20. Color space                              : YUV
  21. Chroma subsampling                       : 4:2:0
  22. Bit depth                                : 8 bits
  23. Scan type                                : Progressive
  24. Bits/(Pixel*Frame)                       : 0.475
  25. Stream size                              : 16.5 GiB (60%)
  26. Title                                    : Toy.Story.4.2019.1080p.BluRay.REMUX.AVC.DTS-HD.MA.TrueHD.7.1.Atmos-FGT
  27. Language                                 : English
  28. Default                                  : No
  29. Forced                                   : No
  30. Audio #1
  31. ID                                       : 2
  32. Format                                   : MLP FBA 16-ch
  33. Format/Info                              : Meridian Lossless Packing FBA with 16-channel presentation
  34. Commercial name                          : Dolby TrueHD with Dolby Atmos
  35. Codec ID                                 : A_TRUEHD
  36. Duration                                 : 1 h 40 min
  37. Bit rate mode                            : Variable
  38. Bit rate                                 : 6 192 kb/s
  39. Maximum bit rate                         : 8 532 kb/s
  40. Channel(s)                               : 8 channels
  41. Channel layout                           : L R C LFE Ls Rs Lb Rb
  42. Sampling rate                            : 48.0 kHz
  43. Frame rate                               : 1 200.000 FPS (40 SPF)
  44. Compression mode                         : Lossless
  45. Stream size                              : 4.33 GiB (16%)
  46. Title                                    : Toy.Story.4.2019.1080p.BluRay.REMUX.AVC.DTS-HD.MA.TrueHD.7.1.Atmos-FGT
  47. Language                                 : English
  48. Default                                  : Yes
  49. Forced                                   : No
  50. Number of dynamic objects                : 13
  51. Bed channel count                        : 1 channel
  52. Bed channel configuration                : LFE
  53. Audio #2
  54. ID                                       : 3
  55. Format                                   : DTS XLL
  56. Format/Info                              : Digital Theater Systems
  57. Commercial name                          : DTS-HD Master Audio
  58. Codec ID                                 : A_DTS
  59. Duration                                 : 1 h 40 min
  60. Bit rate mode                            : Variable
  61. Bit rate                                 : 4 160 kb/s
  62. Channel(s)                               : 8 channels
  63. Channel layout                           : C L R LFE Lb Rb Lss Rss
  64. Sampling rate                            : 48.0 kHz
  65. Frame rate                               : 93.750 FPS (512 SPF)
  66. Bit depth                                : 24 bits
  67. Compression mode                         : Lossless
  68. Stream size                              : 2.91 GiB (11%)
  69. Title                                    : Toy.Story.4.2019.1080p.BluRay.REMUX.AVC.DTS-HD.MA.TrueHD.7.1.Atmos-FGT
  70. Language                                 : English
  71. Default                                  : No
  72. Forced                                   : No
  73. Audio #3
  74. ID                                       : 4
  75. Format                                   : AC-3
  76. Format/Info                              : Audio Coding 3
  77. Commercial name                          : Dolby Digital
  78. Codec ID                                 : A_AC3
  79. Duration                                 : 1 h 40 min
  80. Bit rate mode                            : Constant
  81. Bit rate                                 : 640 kb/s
  82. Channel(s)                               : 6 channels
  83. Channel layout                           : L R C LFE Ls Rs
  84. Sampling rate                            : 48.0 kHz
  85. Frame rate                               : 31.250 FPS (1536 SPF)
  86. Bit depth                                : 16 bits
  87. Compression mode                         : Lossy
  88. Stream size                              : 458 MiB (2%)
  89. Title                                    : Toy.Story.4.2019.1080p.BluRay.REMUX.AVC.DTS-HD.MA.TrueHD.7.1.Atmos-FGT
  90. Language                                 : English
  91. Service kind                             : Complete Main
  92. Default                                  : No
  93. Forced                                   : No
  94. Audio #4
  95. ID                                       : 5
  96. Format                                   : DTS XBR
  97. Format/Info                              : Digital Theater Systems
  98. Commercial name                          : DTS-HD High Resolution Audio
  99. Codec ID                                 : A_DTS
  100. Duration                                 : 1 h 40 min
  101. Bit rate mode                            : Constant
  102. Bit rate                                 : 2 046 kb/s
  103. Channel(s)                               : 6 channels
  104. Channel layout                           : C L R Ls Rs LFE
  105. Sampling rate                            : 48.0 kHz
  106. Frame rate                               : 93.750 FPS (512 SPF)
  107. Bit depth                                : 24 bits
  108. Compression mode                         : Lossy
  109. Stream size                              : 1.43 GiB (5%)
  110. Title                                    : Toy.Story.4.2019.1080p.BluRay.REMUX.AVC.DTS-HD.MA.TrueHD.7.1.Atmos-FGT
  111. Language                                 : English
  112. Default                                  : No
  113. Forced                                   : No
  114. Audio #5
  115. ID                                       : 6
  116. Format                                   : AC-3
  117. Format/Info                              : Audio Coding 3
  118. Commercial name                          : Dolby Digital
  119. Codec ID                                 : A_AC3
  120. Duration                                 : 1 h 40 min
  121. Bit rate mode                            : Constant
  122. Bit rate                                 : 320 kb/s
  123. Channel(s)                               : 2 channels
  124. Channel layout                           : L R
  125. Sampling rate                            : 48.0 kHz
  126. Frame rate                               : 31.250 FPS (1536 SPF)
  127. Bit depth                                : 16 bits
  128. Compression mode                         : Lossy
  129. Stream size                              : 229 MiB (1%)
  130. Title                                    : Toy.Story.4.2019.1080p.BluRay.REMUX.AVC.DTS-HD.MA.TrueHD.7.1.Atmos-FGT
  131. Language                                 : English
  132. Service kind                             : Complete Main
  133. Default                                  : No
  134. Forced                                   : No
  135. Audio #6
  136. ID                                       : 7
  137. Format                                   : AC-3
  138. Format/Info                              : Audio Coding 3
  139. Commercial name                          : Dolby Digital
  140. Codec ID                                 : A_AC3
  141. Duration                                 : 1 h 40 min
  142. Bit rate mode                            : Constant
  143. Bit rate                                 : 320 kb/s
  144. Channel(s)                               : 2 channels
  145. Channel layout                           : L R
  146. Sampling rate                            : 48.0 kHz
  147. Frame rate                               : 31.250 FPS (1536 SPF)
  148. Bit depth                                : 16 bits
  149. Compression mode                         : Lossy
  150. Stream size                              : 229 MiB (1%)
  151. Title                                    : Toy.Story.4.2019.1080p.BluRay.REMUX.AVC.DTS-HD.MA.TrueHD.7.1.Atmos-FGT
  152. Language                                 : English
  153. Service kind                             : Complete Main
  154. Default                                  : No
  155. Forced                                   : No
  156. Audio #7
  157. ID                                       : 8
  158. Format                                   : AC-3
  159. Format/Info                              : Audio Coding 3
  160. Commercial name                          : Dolby Digital
  161. Codec ID                                 : A_AC3
  162. Duration                                 : 1 h 40 min
  163. Bit rate mode                            : Constant
  164. Bit rate                                 : 640 kb/s
  165. Channel(s)                               : 6 channels
  166. Channel layout                           : L R C LFE Ls Rs
  167. Sampling rate                            : 48.0 kHz
  168. Frame rate                               : 31.250 FPS (1536 SPF)
  169. Bit depth                                : 16 bits
  170. Compression mode                         : Lossy
  171. Stream size                              : 458 MiB (2%)
  172. Title                                    : Toy.Story.4.2019.1080p.BluRay.REMUX.AVC.DTS-HD.MA.TrueHD.7.1.Atmos-FGT
  173. Language                                 : French
  174. Service kind                             : Complete Main
  175. Default                                  : No
  176. Forced                                   : No
  177. Audio #8
  178. ID                                       : 9
  179. Format                                   : AC-3
  180. Format/Info                              : Audio Coding 3
  181. Commercial name                          : Dolby Digital
  182. Codec ID                                 : A_AC3
  183. Duration                                 : 1 h 40 min
  184. Bit rate mode                            : Constant
  185. Bit rate                                 : 640 kb/s
  186. Channel(s)                               : 6 channels
  187. Channel layout                           : L R C LFE Ls Rs
  188. Sampling rate                            : 48.0 kHz
  189. Frame rate                               : 31.250 FPS (1536 SPF)
  190. Bit depth                                : 16 bits
  191. Compression mode                         : Lossy
  192. Stream size                              : 458 MiB (2%)
  193. Title                                    : Toy.Story.4.2019.1080p.BluRay.REMUX.AVC.DTS-HD.MA.TrueHD.7.1.Atmos-FGT
  194. Language                                 : Spanish
  195. Service kind                             : Complete Main
  196. Default                                  : No
  197. Forced                                   : No
  198. Audio #9
  199. ID                                       : 10
  200. Format                                   : AC-3
  201. Format/Info                              : Audio Coding 3
  202. Commercial name                          : Dolby Digital
  203. Codec ID                                 : A_AC3
  204. Duration                                 : 1 h 40 min
  205. Bit rate mode                            : Constant
  206. Bit rate                                 : 320 kb/s
  207. Channel(s)                               : 2 channels
  208. Channel layout                           : L R
  209. Sampling rate                            : 48.0 kHz
  210. Frame rate                               : 31.250 FPS (1536 SPF)
  211. Bit depth                                : 16 bits
  212. Compression mode                         : Lossy
  213. Stream size                              : 229 MiB (1%)
  214. Title                                    : Toy.Story.4.2019.1080p.BluRay.REMUX.AVC.DTS-HD.MA.TrueHD.7.1.Atmos-FGT
  215. Language                                 : English
  216. Service kind                             : Complete Main
  217. Default                                  : No
  218. Forced                                   : No
  219. Text #1
  220. ID                                       : 11
  221. Format                                   : UTF-8
  222. Codec ID                                 : S_TEXT/UTF8
  223. Codec ID/Info                            : UTF-8 Plain Text
  224. Duration                                 : 1 h 39 min
  225. Bit rate                                 : 63 b/s
  226. Count of elements                        : 1806
  227. Stream size                              : 46.3 KiB (0%)
  228. Title                                    : English-SRT
  229. Language                                 : English
  230. Default                                  : Yes
  231. Forced                                   : No
  232. Text #2
  233. ID                                       : 12
  234. Format                                   : UTF-8
  235. Codec ID                                 : S_TEXT/UTF8
  236. Codec ID/Info                            : UTF-8 Plain Text
  237. Duration                                 : 1 h 39 min
  238. Bit rate                                 : 76 b/s
  239. Count of elements                        : 2062
  240. Stream size                              : 55.5 KiB (0%)
  241. Title                                    : English-SDH-SRT
  242. Language                                 : English
  243. Default                                  : No
  244. Forced                                   : No
  245. Text #3
  246. ID                                       : 13
  247. Format                                   : PGS
  248. Muxing mode                              : zlib
  249. Codec ID                                 : S_HDMV/PGS
  250. Codec ID/Info                            : Picture based subtitle format used on BDs/HD-DVDs
  251. Duration                                 : 1 h 39 min
  252. Bit rate                                 : 39.9 kb/s
  253. Count of elements                        : 3346
  254. Stream size                              : 28.5 MiB (0%)
  255. Title                                    : English-PGS
  256. Language                                 : English
  257. Default                                  : No
  258. Forced                                   : No
  259. Text #4
  260. ID                                       : 14
  261. Format                                   : PGS
  262. Muxing mode                              : zlib
  263. Codec ID                                 : S_HDMV/PGS
  264. Codec ID/Info                            : Picture based subtitle format used on BDs/HD-DVDs
  265. Duration                                 : 1 h 39 min
  266. Bit rate                                 : 51.8 kb/s
  267. Count of elements                        : 4142
  268. Stream size                              : 36.8 MiB (0%)
  269. Title                                    : English-SDH-PGS
  270. Language                                 : English
  271. Default                                  : No
  272. Forced                                   : No
  273. Text #5
  274. ID                                       : 15
  275. Format                                   : PGS
  276. Muxing mode                              : zlib
  277. Codec ID                                 : S_HDMV/PGS
  278. Codec ID/Info                            : Picture based subtitle format used on BDs/HD-DVDs
  279. Duration                                 : 1 h 39 min
  280. Bit rate                                 : 44.9 kb/s
  281. Count of elements                        : 3364
  282. Stream size                              : 32.1 MiB (0%)
  283. Title                                    : French-PGS
  284. Language                                 : French
  285. Default                                  : No
  286. Forced                                   : No
  287. Text #6
  288. ID                                       : 16
  289. Format                                   : PGS
  290. Muxing mode                              : zlib
  291. Codec ID                                 : S_HDMV/PGS
  292. Codec ID/Info                            : Picture based subtitle format used on BDs/HD-DVDs
  293. Duration                                 : 1 h 39 min
  294. Bit rate                                 : 39.2 kb/s
  295. Count of elements                        : 3362
  296. Stream size                              : 28.0 MiB (0%)
  297. Title                                    : Spanish-PGS
  298. Language                                 : Spanish
  299. Default                                  : No
  300. Forced                                   : No
  301. Text #7
  302. ID                                       : 17
  303. Format                                   : PGS
  304. Muxing mode                              : zlib
  305. Codec ID                                 : S_HDMV/PGS
  306. Codec ID/Info                            : Picture based subtitle format used on BDs/HD-DVDs
  307. Duration                                 : 1 h 39 min
  308. Bit rate                                 : 71.6 kb/s
  309. Count of elements                        : 3538
  310. Stream size                              : 51.2 MiB (0%)
  311. Title                                    : English-COMMENTARY-PGS
  312. Language                                 : English
  313. Default                                  : No
  314. Forced                                   : No
  315. Text #8
  316. ID                                       : 18
  317. Format                                   : PGS
  318. Muxing mode                              : zlib
  319. Codec ID                                 : S_HDMV/PGS
  320. Codec ID/Info                            : Picture based subtitle format used on BDs/HD-DVDs
  321. Duration                                 : 1 h 39 min
  322. Bit rate                                 : 66.9 kb/s
  323. Count of elements                        : 3390
  324. Stream size                              : 47.8 MiB (0%)
  325. Title                                    : English-COMMENTARY-PGS
  326. Language                                 : English
  327. Default                                  : No
  328. Forced                                   : No
  329. Text #9
  330. ID                                       : 19
  331. Format                                   : PGS
  332. Muxing mode                              : zlib
  333. Codec ID                                 : S_HDMV/PGS
  334. Codec ID/Info                            : Picture based subtitle format used on BDs/HD-DVDs
  335. Duration                                 : 1 h 39 min
  336. Bit rate                                 : 61.8 kb/s
  337. Count of elements                        : 3390
  338. Stream size                              : 44.1 MiB (0%)
  339. Title                                    : French-COMMENTARY-PGS
  340. Language                                 : French
  341. Default                                  : No
  342. Forced                                   : No
  343. Text #10
  344. ID                                       : 20
  345. Format                                   : PGS
  346. Muxing mode                              : zlib
  347. Codec ID                                 : S_HDMV/PGS
  348. Codec ID/Info                            : Picture based subtitle format used on BDs/HD-DVDs
  349. Duration                                 : 1 h 39 min
  350. Bit rate                                 : 61.0 kb/s
  351. Count of elements                        : 3390
  352. Stream size                              : 43.5 MiB (0%)
  353. Title                                    : Spanish-COMMENTARY-PGS
  354. Language                                 : Spanish
  355. Default                                  : No
  356. Forced                                   : No
  357. Menu
  358. 00:00:00.000                             : en:Chapter 01
  359. 00:05:39.797                             : en:Chapter 02
  360. 00:11:21.097                             : en:Chapter 03
  361. 00:15:06.238                             : en:Chapter 04
  362. 00:19:01.140                             : en:Chapter 05
  363. 00:20:52.042                             : en:Chapter 06
  364. 00:22:43.820                             : en:Chapter 07
  365. 00:26:11.111                             : en:Chapter 08
  366. 00:27:47.082                             : en:Chapter 09
  367. 00:32:11.846                             : en:Chapter 10
  368. 00:36:17.425                             : en:Chapter 11
  369. 00:40:34.640                             : en:Chapter 12
  370. 00:42:56.699                             : en:Chapter 13
  371. 00:44:26.872                             : en:Chapter 14
  372. 00:46:39.379                             : en:Chapter 15
  373. 00:48:06.174                             : en:Chapter 16
  374. 00:49:18.664                             : en:Chapter 17
  375. 00:52:25.809                             : en:Chapter 18
  376. 00:53:58.568                             : en:Chapter 19
  377. 00:54:34.479                             : en:Chapter 20
  378. 00:59:06.960                             : en:Chapter 21
  379. 01:01:30.645                             : en:Chapter 22
  380. 01:04:40.751                             : en:Chapter 23
  381. 01:07:25.249                             : en:Chapter 24
  382. 01:09:31.041                             : en:Chapter 25
  383. 01:10:54.833                             : en:Chapter 26
  384. 01:12:05.154                             : en:Chapter 27
  385. 01:15:03.040                             : en:Chapter 28
  386. 01:17:29.770                             : en:Chapter 29
  387. 01:18:04.846                             : en:Chapter 30
  388. 01:19:21.840                             : en:Chapter 31
  389. 01:19:48.116                             : en:Chapter 32
  390. 01:22:24.940                             : en:Chapter 33
  391. 01:29:00.293                             : en:Chapter 34
复制代码






                                       
                                       

                                       
                                       
                                       




回复

使用道具 举报

懒得打字嘛,点击右侧快捷回复 【右侧内容,后台自定义】
您需要登录后才可以回帖 登录 | 立即加入

本版积分规则

Archiver|小黑屋| 蓝光电影网 |网站地图

Copyright © 2021 Comsenz Inc. Powered by 蓝光电影网

蓝光电影网

本站内容由用户自主分享和转载自互联网,转载目的在于传递更多信息,并不代表本网赞同其观点和对其真实性负责。

如有侵权、违反国家法律政策行为,请联系我们,我们会第一时间及时清除和处理!

举报反馈邮箱:[email protected]

快速回复 返回顶部 返回列表