找回密码

蓝光电影网

查看: 10|回复: 0

[动作] 全城戒备 City.Under.Siege.2010.CHINESE.1080p.BluRay.x264.DTS-CHD 9.40GB

[复制链接]
蓝光币
515
发表于 2019-8-6 10:11:47 | 显示全部楼层 |阅读模式


◎译  名 City Under Siege
◎片  名 全城防备
◎年  代 2010
◎产  地 香港 / 中国大陆
◎类  别 行动 / 科幻 / 惊悚
◎语  言 粤语 / 汉语普通话
◎上映日期 2010-08-06(中国大陆)
◎IMDb评分  4.7/10 from 811 users
◎IMDb链接  http://www.imdb.com/title/tt1691832
◎豆瓣评分 4.4/10 from 37648 users
◎豆瓣链接 https://movie.douban.com/subject/3874981/
◎片  长 110 分钟(香港)
◎导  演 陈木胜 Benny Chan
◎编  剧 陈木胜 Benny Chan / 凌志民 Chi-man Ling / 刘尚然
◎主  演 郭富城 Aaron Kwok
      舒淇 Qi Shu
      邹兆龙 Collin Chou
      张静初 Jingchu Zhang
      吴京 Jacky Wu
      张宝雯 Baowen Zhang
      铁男 Nan Tie
      元华 Wah Yuen
      周秀娜 Chrissie Chaw
      尹子维 Terence Yin

◎标  签 行动 | 香港电影 | 香港 | 郭富城 | 舒淇 | 陈木胜 | 吴京 | 张静初
◎简  介  
  奇艺坊马戏团在马来西亚巡回表演,团员们偶然听说二战期间日本人留下的宝藏的消息。在飞刀高手张大初(邹兆龙 饰)的率领下,他们一行五人杀戮寻宝者,一心想成为飞刀里手的小人物桑尼(郭富城 饰)尾随前来,亲眼目击大初一众行凶全进程。他被迫随众人下洞,却无意开启日军留下的生化兵器。经过一番难以设想的艰辛磨难,桑尼侥幸逃生,却酿成希奇的摸样。
与此同时,香港接连发生数起抢劫案。行凶者手无寸铁,手段残暴,他们正是受毒气传染发生变异的张大初等人。这连续串事务震动全港,警方从本地请来其中高手孙皓(吴京 饰)与程秀华(张静初 饰)辅佐观察。而桑尼也摇身一酿成为与邪恶匹敌的正义使者……
◎获奖情况  
  第30届香港电影金像奖(2011)
  最好女配角(提名) 张静初

  1. Video
  2. ID                                       : 1
  3. Format                                   : AVC
  4. Format/Info                              : Advanced Video Codec
  5. Format profile                           : [email protected]
  6. Format settings                          : CABAC / 5 Ref Frames
  7. Format settings, CABAC                   : Yes
  8. Format settings, Reference frames        : 5 frames
  9. Codec ID                                 : V_MPEG4/ISO/AVC
  10. Duration                                 : 1 h 51 min
  11. Bit rate                                 : 11.3 Mb/s
  12. Width                                    : 1 920 pixels
  13. Height                                   : 816 pixels
  14. Display aspect ratio                     : 2.35:1
  15. Frame rate mode                          : Constant
  16. Frame rate                               : 24.000 FPS
  17. Color space                              : YUV
  18. Chroma subsampling                       : 4:2:0
  19. Bit depth                                : 8 bits
  20. Scan type                                : Progressive
  21. Bits/(Pixel*Frame)                       : 0.302
  22. Stream size                              : 8.80 GiB (94%)
  23. Writing library                          : x264 core 102 r1666 d058f37
  24. Encoding settings                        : cabac=1 / ref=5 / deblock=1:-3:-3 / analyse=0x3:0x113 / me=umh / subme=9 / psy=1 / psy_rd=1.10:0.15 / mixed_ref=1 / me_range=32 / chroma_me=1 / trellis=2 / 8x8dct=1 / cqm=2 / deadzone=21,11 / fast_pskip=0 / chroma_qp_offset=-2 / threads=12 / sliced_threads=0 / nr=0 / decimate=1 / interlaced=0 / constrained_intra=0 / bframes=6 / b_pyramid=2 / b_adapt=2 / b_bias=0 / direct=3 / weightb=1 / open_gop=0 / weightp=2 / keyint=250 / keyint_min=25 / scenecut=40 / intra_refresh=0 / rc_lookahead=50 / rc=2pass / mbtree=1 / bitrate=11338 / ratetol=1.0 / qcomp=0.70 / qpmin=10 / qpmax=51 / qpstep=4 / cplxblur=20.0 / qblur=0.5 / vbv_maxrate=50000 / vbv_bufsize=50000 / ip_ratio=1.40 / aq=1:0.80 / nal_hrd=none
  25. Language                                 : Chinese
  26. Default                                  : No
  27. Forced                                   : No
  28. Audio
  29. ID                                       : 2
  30. Format                                   : DTS
  31. Format/Info                              : Digital Theater Systems
  32. Codec ID                                 : A_DTS
  33. Duration                                 : 1 h 51 min
  34. Bit rate mode                            : Constant
  35. Bit rate                                 : 768 kb/s
  36. Channel(s)                               : 6 channels
  37. Channel layout                           : C L R Ls Rs LFE
  38. Sampling rate                            : 48.0 kHz
  39. Frame rate                               : 93.750 FPS (512 SPF)
  40. Bit depth                                : 24 bits
  41. Compression mode                         : Lossy
  42. Stream size                              : 611 MiB (6%)
  43. Language                                 : Chinese
  44. Default                                  : No
  45. Forced                                   : No
  46. Text
  47. ID                                       : 3
  48. Format                                   : UTF-8
  49. Codec ID                                 : S_TEXT/UTF8
  50. Codec ID/Info                            : UTF-8 Plain Text
  51. Duration                                 : 1 h 47 min
  52. Bit rate                                 : 36 b/s
  53. Count of elements                        : 1141
  54. Stream size                              : 29.0 KiB (0%)
  55. Language                                 : English
  56. Default                                  : Yes
  57. Forced                                   : No
复制代码






                                       
                                       

                                       
                                       
                                       




回复

使用道具 举报

懒得打字嘛,点击右侧快捷回复 【右侧内容,后台自定义】
您需要登录后才可以回帖 登录 | 立即加入

本版积分规则

Archiver|小黑屋| 蓝光电影网 |网站地图

Copyright © 2021 Comsenz Inc. Powered by 蓝光电影网

蓝光电影网

本站内容由用户自主分享和转载自互联网,转载目的在于传递更多信息,并不代表本网赞同其观点和对其真实性负责。

如有侵权、违反国家法律政策行为,请联系我们,我们会第一时间及时清除和处理!

举报反馈邮箱:[email protected]

快速回复 返回顶部 返回列表