找回密码

蓝光电影网

查看: 109|回复: 1

[动作] 夺宝奇兵4/印地安纳琼斯之水晶骷髅王国 Indiana.Jones.and.the.Kingdom.of.the.Crystal.Skull.2008.1080p.BluRay.REMUX.AVC.DTS-HD.MA.TrueHD.7.1.Atmos-FGT 36.53GB

[复制链接]
蓝光币
519
发表于 2021-7-9 09:57:57 | 显示全部楼层 |阅读模式


◎译  名 夺宝奇兵4/印地安纳琼斯之水晶骷髅王国/印地安纳琼斯和水晶骷髅王国/印第安纳琼斯:水晶骷髅王国(台)/夺宝奇兵4:水晶头骨王国/夺宝奇兵之水晶骷髅国/水晶骷髅王国
◎片  名 Indiana Jones and the Kingdom of the Crystal Skull
◎年  代 2008
◎产  地 美国
◎类  别 行动 / 惊悚 / 冒险
◎语  言 英语,德语,俄语
◎上映日期 2008-05-22(美国)
◎豆瓣评分 7.2/10 from 50535 users
◎豆瓣链接 https://movie.douban.com/subject/1428051/
◎片  长 122分钟
◎导  演 史蒂文·斯皮尔伯格 Steven Spielberg
◎编  剧 大卫·凯普 David Koepp / 乔治·卢卡斯 George Lucas / 杰夫·内桑森 Jeff Nathanson / 菲利普·考夫曼 Philip Kaufman
◎主  演 哈里森·福特 Harrison Ford
       希亚·拉博夫 Shia LaBeouf
       凯特·布兰切特 Cate Blanchett
       凯伦·阿兰 Karen Allen
       雷·温斯顿 Ray Winstone
       约翰·赫特 John Hurt
       吉姆·布劳德本特 Jim Broadbent
       Adam Kirley Adam Kirley
       海伦娜·巴雷特 Helena Barrett
       Conor Timmis Conor Timmis
       安德鲁·迪沃夫 Andrew Divoff
       V·J·福斯特 V.J. Foster
       厄尼·雷耶斯 Ernie Reyes Jr.
       约翰托宾 John H. Tobin
       阿兰·戴尔 Alan Dale
       尼托·拉里奥萨 Nito Larioza
       Steven A. Miller Steven A. Miller
       卡洛斯·利纳雷斯 Carlos Linares
       珍妮特·洛佩兹 Janet Lopez
       Andrew Goldfarb Andrew Goldfarb
       Dennis Nusbaum Dennis Nusbaum
       Brian Knutson Brian Knutson
       Sean Marrinan Sean Marrinan
       Gleb Kaminer Gleb Kaminer
       Ilya Jonathan Zaydenberg Ilya Jonathan Zaydenberg
       罗伯特·贝克尔 Robert Baker
       琼·瓦勒拉 Jon Valera
       尼尔·弗林 Neil Flynn
       乔恩·博瑞尔 Jon Braver
       Jonathan Lomma Jonathan Lomma
       帕沙·D.林奇尼科夫 Pasha D. Lychnikoff
       安德雷·阿莱森 Andre Alexsen
       Jerzy Jacyna Jerzy Jacyna
       Sam Rocco Sam Rocco
       萨沙·斯皮尔伯格 Sasha Spielberg
       Paul Thornton Paul Thornton
       切特·汉克斯 Chet Hanks
◎标  签 冒险 | 美国 | 斯皮尔伯格 | 行动 | 奇异 | 美国电影 | HarrisonFord | 2008
◎简  介


  19年后,印第安纳琼斯博士(Harrison Ford饰)再次出发,旨在将埃克托王国丢失的水晶骷髅头骨归复原地——传闻中,归还圣物者将被赐予庞大气力。
  
  在琼斯的老友奥克斯发现水晶头骨前,这一切还只是传闻。可奥克斯以后却不知何以损失了心智,并落入苏联奸细队的手中。为首的刻毒女特务艾瑞娜(Cate Blanchett饰)深深厚迷于所谓的奥秘气力,她勒迫琼斯一行人与其配合前往亚马逊流域,找寻失落的黄金城埃克托王国。
  
  在秘鲁密林,琼斯等人和苏军展开畅快淋漓的战役,其间还陪伴着沼泽、食人蚁、原始土著进犯等致命威胁,在他们历经千难万险,终极踏入密屋的那一刻,天下上最奇异的气象出现了……
◎获奖情况
  第29届金酸莓奖 ?(2009)
  最差前传、重拍、恶搞及续集电影
  
  第17届MTV电影奖 ?(2008)
  MTV电影奖迄今最好暑期电影(提名)
  1. Video
  2. ID                                       : 1
  3. Format                                   : AVC
  4. Format/Info                              : Advanced Video Codec
  5. Format profile                           : [email protected]
  6. Format settings                          : CABAC / 4 Ref Frames
  7. Format settings, CABAC                   : Yes
  8. Format settings, Reference frames        : 4 frames
  9. Codec ID                                 : V_MPEG4/ISO/AVC
  10. Duration                                 : 2 h 2 min
  11. Bit rate mode                            : Variable
  12. Bit rate                                 : 33.5 Mb/s
  13. Maximum bit rate                         : 35.0 Mb/s
  14. Width                                    : 1 920 pixels
  15. Height                                   : 1 080 pixels
  16. Display aspect ratio                     : 16:9
  17. Frame rate mode                          : Constant
  18. Frame rate                               : 23.976 (24000/1001/189150) FPS
  19. Color space                              : YUV
  20. Chroma subsampling                       : 4:2:0
  21. Bit depth                                : 8 bits
  22. Scan type                                : Progressive
  23. Bits/(Pixel*Frame)                       : 0.674
  24. Stream size                              : 28.7 GiB (78%)
  25. Title                                    : Indiana.Jones.and.the.Kingdom.of.the.Crystal.Skull.2008.1080p.BluRay.REMUX.AVC.DTS-HD.MA.5.1-FGT
  26. Default                                  : Yes
  27. Forced                                   : No
  28. Audio #1
  29. ID                                       : 2
  30. ID in the original source medium         : 4352 (0x1100)
  31. Format                                   : MLP FBA 16-ch
  32. Format/Info                              : Meridian Lossless Packing FBA with 16-channel presentation
  33. Commercial name                          : Dolby TrueHD with Dolby Atmos
  34. Codec ID                                 : A_TRUEHD
  35. Duration                                 : 2 h 2 min
  36. Bit rate mode                            : Variable
  37. Bit rate                                 : 4 083 kb/s
  38. Maximum bit rate                         : 6 465 kb/s
  39. Channel(s)                               : 8 channels
  40. Channel layout                           : L R C LFE Ls Rs Lb Rb
  41. Sampling rate                            : 48.0 kHz
  42. Frame rate                               : 1 200.000 FPS (40 SPF)
  43. Bit depth                                : 24 bits
  44. Compression mode                         : Lossless
  45. Delay relative to video                  : 300 ms
  46. Stream size                              : 3.49 GiB (10%)
  47. Title                                    : TrueHD 7.1 Atmos
  48. Language                                 : English
  49. Default                                  : Yes
  50. Forced                                   : No
  51. Original source medium                   : Blu-ray
  52. Number of dynamic objects                : 11
  53. Bed channel count                        : 1 channel
  54. Bed channel configuration                : LFE
  55. Audio #2
  56. ID                                       : 3
  57. Format                                   : DTS XLL
  58. Format/Info                              : Digital Theater Systems
  59. Commercial name                          : DTS-HD Master Audio
  60. Codec ID                                 : A_DTS
  61. Duration                                 : 2 h 2 min
  62. Bit rate mode                            : Variable
  63. Bit rate                                 : 4 271 kb/s
  64. Channel(s)                               : 8 channels
  65. Channel layout                           : C L R LFE Lb Rb Lss Rss
  66. Sampling rate                            : 48.0 kHz
  67. Frame rate                               : 93.750 FPS (512 SPF)
  68. Bit depth                                : 24 bits
  69. Compression mode                         : Lossless
  70. Delay relative to video                  : 300 ms
  71. Stream size                              : 3.65 GiB (10%)
  72. Title                                    : DTS-HD MA 7.1
  73. Language                                 : English
  74. Default                                  : No
  75. Forced                                   : No
  76. Audio #3
  77. ID                                       : 4
  78. ID in the original source medium         : 4352 (0x1100)
  79. Format                                   : AC-3
  80. Format/Info                              : Audio Coding 3
  81. Commercial name                          : Dolby Digital
  82. Format settings                          : Dolby Surround EX
  83. Codec ID                                 : A_AC3
  84. Duration                                 : 2 h 2 min
  85. Bit rate mode                            : Constant
  86. Bit rate                                 : 640 kb/s
  87. Channel(s)                               : 6 channels
  88. Channel layout                           : L R C LFE Ls Rs
  89. Sampling rate                            : 48.0 kHz
  90. Frame rate                               : 31.250 FPS (1536 SPF)
  91. Compression mode                         : Lossy
  92. Delay relative to video                  : 300 ms
  93. Stream size                              : 561 MiB (1%)
  94. Title                                    : DD 5.1
  95. Language                                 : English
  96. Service kind                             : Complete Main
  97. Default                                  : No
  98. Forced                                   : No
  99. Original source medium                   : Blu-ray
  100. Text #1
  101. ID                                       : 5
  102. Format                                   : UTF-8
  103. Codec ID                                 : S_TEXT/UTF8
  104. Codec ID/Info                            : UTF-8 Plain Text
  105. Duration                                 : 1 h 54 min
  106. Bit rate                                 : 42 b/s
  107. Count of elements                        : 1038
  108. Stream size                              : 35.7 KiB (0%)
  109. Title                                    : SRT
  110. Language                                 : English
  111. Default                                  : Yes
  112. Forced                                   : No
  113. Text #2
  114. ID                                       : 6
  115. ID in the original source medium         : 4768 (0x12A0)
  116. Format                                   : PGS
  117. Muxing mode                              : zlib
  118. Codec ID                                 : S_HDMV/PGS
  119. Codec ID/Info                            : Picture based subtitle format used on BDs/HD-DVDs
  120. Duration                                 : 1 h 54 min
  121. Bit rate                                 : 27.0 kb/s
  122. Count of elements                        : 2084
  123. Stream size                              : 22.2 MiB (0%)
  124. Language                                 : English
  125. Default                                  : No
  126. Forced                                   : No
  127. Original source medium                   : Blu-ray
  128. Text #3
  129. ID                                       : 7
  130. ID in the original source medium         : 4769 (0x12A1)
  131. Format                                   : PGS
  132. Muxing mode                              : zlib
  133. Codec ID                                 : S_HDMV/PGS
  134. Codec ID/Info                            : Picture based subtitle format used on BDs/HD-DVDs
  135. Duration                                 : 1 h 55 min
  136. Bit rate                                 : 29.5 kb/s
  137. Count of elements                        : 2396
  138. Stream size                              : 24.4 MiB (0%)
  139. Language                                 : English
  140. Default                                  : No
  141. Forced                                   : No
  142. Original source medium                   : Blu-ray
  143. Text #4
  144. ID                                       : 8
  145. ID in the original source medium         : 4770 (0x12A2)
  146. Format                                   : PGS
  147. Muxing mode                              : zlib
  148. Codec ID                                 : S_HDMV/PGS
  149. Codec ID/Info                            : Picture based subtitle format used on BDs/HD-DVDs
  150. Duration                                 : 2 h 1 min
  151. Bit rate                                 : 17.9 kb/s
  152. Count of elements                        : 2052
  153. Stream size                              : 15.6 MiB (0%)
  154. Language                                 : Chinese
  155. Default                                  : No
  156. Forced                                   : No
  157. Original source medium                   : Blu-ray
  158. Text #5
  159. ID                                       : 9
  160. ID in the original source medium         : 4771 (0x12A3)
  161. Format                                   : PGS
  162. Muxing mode                              : zlib
  163. Codec ID                                 : S_HDMV/PGS
  164. Codec ID/Info                            : Picture based subtitle format used on BDs/HD-DVDs
  165. Duration                                 : 2 h 1 min
  166. Bit rate                                 : 22.0 kb/s
  167. Count of elements                        : 2022
  168. Stream size                              : 19.2 MiB (0%)
  169. Language                                 : Danish
  170. Default                                  : No
  171. Forced                                   : No
  172. Original source medium                   : Blu-ray
  173. Text #6
  174. ID                                       : 10
  175. ID in the original source medium         : 4772 (0x12A4)
  176. Format                                   : PGS
  177. Muxing mode                              : zlib
  178. Codec ID                                 : S_HDMV/PGS
  179. Codec ID/Info                            : Picture based subtitle format used on BDs/HD-DVDs
  180. Duration                                 : 2 h 1 min
  181. Bit rate                                 : 23.1 kb/s
  182. Count of elements                        : 2042
  183. Stream size                              : 20.1 MiB (0%)
  184. Language                                 : Spanish
  185. Default                                  : No
  186. Forced                                   : No
  187. Original source medium                   : Blu-ray
  188. Text #7
  189. ID                                       : 11
  190. ID in the original source medium         : 4772 (0x12A4)
  191. Format                                   : PGS
  192. Muxing mode                              : zlib
  193. Codec ID                                 : S_HDMV/PGS
  194. Codec ID/Info                            : Picture based subtitle format used on BDs/HD-DVDs
  195. Duration                                 : 19 min 44 s
  196. Bit rate                                 : 757 b/s
  197. Count of elements                        : 10
  198. Stream size                              : 110 KiB (0%)
  199. Language                                 : Spanish
  200. Default                                  : No
  201. Forced                                   : No
  202. Original source medium                   : Blu-ray
  203. Text #8
  204. ID                                       : 12
  205. ID in the original source medium         : 4773 (0x12A5)
  206. Format                                   : PGS
  207. Muxing mode                              : zlib
  208. Codec ID                                 : S_HDMV/PGS
  209. Codec ID/Info                            : Picture based subtitle format used on BDs/HD-DVDs
  210. Duration                                 : 2 h 1 min
  211. Bit rate                                 : 21.3 kb/s
  212. Count of elements                        : 2006
  213. Stream size                              : 18.6 MiB (0%)
  214. Language                                 : French
  215. Default                                  : No
  216. Forced                                   : No
  217. Original source medium                   : Blu-ray
  218. Text #9
  219. ID                                       : 13
  220. ID in the original source medium         : 4773 (0x12A5)
  221. Format                                   : PGS
  222. Muxing mode                              : zlib
  223. Codec ID                                 : S_HDMV/PGS
  224. Codec ID/Info                            : Picture based subtitle format used on BDs/HD-DVDs
  225. Duration                                 : 19 min 44 s
  226. Bit rate                                 : 714 b/s
  227. Count of elements                        : 10
  228. Stream size                              : 103 KiB (0%)
  229. Language                                 : French
  230. Default                                  : No
  231. Forced                                   : No
  232. Original source medium                   : Blu-ray
  233. Text #10
  234. ID                                       : 14
  235. ID in the original source medium         : 4774 (0x12A6)
  236. Format                                   : PGS
  237. Muxing mode                              : zlib
  238. Codec ID                                 : S_HDMV/PGS
  239. Codec ID/Info                            : Picture based subtitle format used on BDs/HD-DVDs
  240. Duration                                 : 2 h 1 min
  241. Bit rate                                 : 23.4 kb/s
  242. Count of elements                        : 2094
  243. Stream size                              : 20.3 MiB (0%)
  244. Language                                 : Italian
  245. Default                                  : No
  246. Forced                                   : No
  247. Original source medium                   : Blu-ray
  248. Text #11
  249. ID                                       : 15
  250. ID in the original source medium         : 4774 (0x12A6)
  251. Format                                   : PGS
  252. Muxing mode                              : zlib
  253. Codec ID                                 : S_HDMV/PGS
  254. Codec ID/Info                            : Picture based subtitle format used on BDs/HD-DVDs
  255. Duration                                 : 19 min 44 s
  256. Bit rate                                 : 599 b/s
  257. Count of elements                        : 8
  258. Stream size                              : 86.8 KiB (0%)
  259. Language                                 : Italian
  260. Default                                  : No
  261. Forced                                   : No
  262. Original source medium                   : Blu-ray
  263. Text #12
  264. ID                                       : 16
  265. ID in the original source medium         : 4775 (0x12A7)
  266. Format                                   : PGS
  267. Muxing mode                              : zlib
  268. Codec ID                                 : S_HDMV/PGS
  269. Codec ID/Info                            : Picture based subtitle format used on BDs/HD-DVDs
  270. Duration                                 : 1 h 54 min
  271. Bit rate                                 : 19.1 kb/s
  272. Count of elements                        : 2066
  273. Stream size                              : 15.7 MiB (0%)
  274. Language                                 : Japanese
  275. Default                                  : No
  276. Forced                                   : No
  277. Original source medium                   : Blu-ray
  278. Text #13
  279. ID                                       : 17
  280. ID in the original source medium         : 4776 (0x12A8)
  281. Format                                   : PGS
  282. Muxing mode                              : zlib
  283. Codec ID                                 : S_HDMV/PGS
  284. Codec ID/Info                            : Picture based subtitle format used on BDs/HD-DVDs
  285. Duration                                 : 2 h 1 min
  286. Bit rate                                 : 16.4 kb/s
  287. Count of elements                        : 1988
  288. Stream size                              : 14.3 MiB (0%)
  289. Language                                 : Korean
  290. Default                                  : No
  291. Forced                                   : No
  292. Original source medium                   : Blu-ray
  293. Text #14
  294. ID                                       : 18
  295. ID in the original source medium         : 4777 (0x12A9)
  296. Format                                   : PGS
  297. Muxing mode                              : zlib
  298. Codec ID                                 : S_HDMV/PGS
  299. Codec ID/Info                            : Picture based subtitle format used on BDs/HD-DVDs
  300. Duration                                 : 2 h 1 min
  301. Bit rate                                 : 17.9 kb/s
  302. Count of elements                        : 2044
  303. Stream size                              : 15.6 MiB (0%)
  304. Language                                 : Chinese
  305. Default                                  : No
  306. Forced                                   : No
  307. Original source medium                   : Blu-ray
  308. Text #15
  309. ID                                       : 19
  310. ID in the original source medium         : 4778 (0x12AA)
  311. Format                                   : PGS
  312. Muxing mode                              : zlib
  313. Codec ID                                 : S_HDMV/PGS
  314. Codec ID/Info                            : Picture based subtitle format used on BDs/HD-DVDs
  315. Duration                                 : 2 h 1 min
  316. Bit rate                                 : 18.5 kb/s
  317. Count of elements                        : 1908
  318. Stream size                              : 16.1 MiB (0%)
  319. Language                                 : Dutch
  320. Default                                  : No
  321. Forced                                   : No
  322. Original source medium                   : Blu-ray
  323. Text #16
  324. ID                                       : 20
  325. ID in the original source medium         : 4779 (0x12AB)
  326. Format                                   : PGS
  327. Muxing mode                              : zlib
  328. Codec ID                                 : S_HDMV/PGS
  329. Codec ID/Info                            : Picture based subtitle format used on BDs/HD-DVDs
  330. Duration                                 : 2 h 1 min
  331. Bit rate                                 : 19.3 kb/s
  332. Count of elements                        : 2010
  333. Stream size                              : 16.8 MiB (0%)
  334. Language                                 : Norwegian
  335. Default                                  : No
  336. Forced                                   : No
  337. Original source medium                   : Blu-ray
  338. Text #17
  339. ID                                       : 21
  340. ID in the original source medium         : 4780 (0x12AC)
  341. Format                                   : PGS
  342. Muxing mode                              : zlib
  343. Codec ID                                 : S_HDMV/PGS
  344. Codec ID/Info                            : Picture based subtitle format used on BDs/HD-DVDs
  345. Duration                                 : 2 h 1 min
  346. Bit rate                                 : 25.5 kb/s
  347. Count of elements                        : 2102
  348. Stream size                              : 22.2 MiB (0%)
  349. Language                                 : Russian
  350. Default                                  : No
  351. Forced                                   : No
  352. Original source medium                   : Blu-ray
  353. Text #18
  354. ID                                       : 22
  355. ID in the original source medium         : 4780 (0x12AC)
  356. Format                                   : PGS
  357. Muxing mode                              : zlib
  358. Codec ID                                 : S_HDMV/PGS
  359. Codec ID/Info                            : Picture based subtitle format used on BDs/HD-DVDs
  360. Duration                                 : 19 min 44 s
  361. Bit rate                                 : 947 b/s
  362. Count of elements                        : 12
  363. Stream size                              : 137 KiB (0%)
  364. Language                                 : Russian
  365. Default                                  : No
  366. Forced                                   : No
  367. Original source medium                   : Blu-ray
  368. Text #19
  369. ID                                       : 23
  370. ID in the original source medium         : 4781 (0x12AD)
  371. Format                                   : PGS
  372. Muxing mode                              : zlib
  373. Codec ID                                 : S_HDMV/PGS
  374. Codec ID/Info                            : Picture based subtitle format used on BDs/HD-DVDs
  375. Duration                                 : 2 h 1 min
  376. Bit rate                                 : 19.3 kb/s
  377. Count of elements                        : 2034
  378. Stream size                              : 16.8 MiB (0%)
  379. Language                                 : Chinese
  380. Default                                  : No
  381. Forced                                   : No
  382. Original source medium                   : Blu-ray
  383. Text #20
  384. ID                                       : 24
  385. ID in the original source medium         : 4782 (0x12AE)
  386. Format                                   : PGS
  387. Muxing mode                              : zlib
  388. Codec ID                                 : S_HDMV/PGS
  389. Codec ID/Info                            : Picture based subtitle format used on BDs/HD-DVDs
  390. Duration                                 : 2 h 1 min
  391. Bit rate                                 : 20.6 kb/s
  392. Count of elements                        : 1994
  393. Stream size                              : 18.0 MiB (0%)
  394. Language                                 : Finnish
  395. Default                                  : No
  396. Forced                                   : No
  397. Original source medium                   : Blu-ray
  398. Text #21
  399. ID                                       : 25
  400. ID in the original source medium         : 4783 (0x12AF)
  401. Format                                   : PGS
  402. Muxing mode                              : zlib
  403. Codec ID                                 : S_HDMV/PGS
  404. Codec ID/Info                            : Picture based subtitle format used on BDs/HD-DVDs
  405. Duration                                 : 2 h 1 min
  406. Bit rate                                 : 22.3 kb/s
  407. Count of elements                        : 2024
  408. Stream size                              : 19.4 MiB (0%)
  409. Language                                 : Swedish
  410. Default                                  : No
  411. Forced                                   : No
  412. Original source medium                   : Blu-ray
  413. Text #22
  414. ID                                       : 26
  415. ID in the original source medium         : 4784 (0x12B0)
  416. Format                                   : PGS
  417. Muxing mode                              : zlib
  418. Codec ID                                 : S_HDMV/PGS
  419. Codec ID/Info                            : Picture based subtitle format used on BDs/HD-DVDs
  420. Duration                                 : 2 h 1 min
  421. Bit rate                                 : 21.4 kb/s
  422. Count of elements                        : 2000
  423. Stream size                              : 18.6 MiB (0%)
  424. Language                                 : Thai
  425. Default                                  : No
  426. Forced                                   : No
  427. Original source medium                   : Blu-ray
  428. Text #23
  429. ID                                       : 27
  430. ID in the original source medium         : 4785 (0x12B1)
  431. Format                                   : PGS
  432. Muxing mode                              : zlib
  433. Codec ID                                 : S_HDMV/PGS
  434. Codec ID/Info                            : Picture based subtitle format used on BDs/HD-DVDs
  435. Duration                                 : 1 h 53 min
  436. Bit rate                                 : 192 b/s
  437. Count of elements                        : 28
  438. Stream size                              : 161 KiB (0%)
  439. Language                                 : Japanese
  440. Default                                  : No
  441. Forced                                   : No
  442. Original source medium                   : Blu-ray
  443. Menu
  444. 00:00:00.000                             : Chapter 01
  445. 00:07:20.148                             : Chapter 02
  446. 00:13:10.206                             : Chapter 03
  447. 00:21:42.634                             : Chapter 04
  448. 00:27:37.656                             : Chapter 05
  449. 00:36:57.215                             : Chapter 06
  450. 00:46:33.290                             : Chapter 07
  451. 00:55:36.041                             : Chapter 08
  452. 01:05:45.232                             : Chapter 09
  453. 01:12:06.739                             : Chapter 10
  454. 01:21:51.281                             : Chapter 11
  455. 01:29:11.596                             : Chapter 12
  456. 01:36:02.798                             : Chapter 13
  457. 01:44:21.755                             : Chapter 14
  458. 01:51:07.952                             : Chapter 15
  459. 01:55:53.363                             : Chapter 16
复制代码






                                       
                                       

                                       
                                       
                                       




夺宝奇兵4/印地安纳琼斯之水晶骷髅王国 Indiana.Jones.and.the.Kingdom.of.the.Crystal.Skull.2008.1080p.BluRay.REMUX.AVC.DTS-HD.MA.TrueHD.7.1.Atmos-FGT 36.53GB

Indiana.Jones.and.the.Kingdom.of.the.Crystal.Skull.2008.1080p.BluRay.REMUX.AVC.D.torrent

46.4 KB, 下载次数: 19, 下载积分: 蓝光币 -2

回复

使用道具 举报

蓝光币
14
发表于 2021-10-15 21:30:23 | 显示全部楼层

这东西我收了!谢谢楼主!蓝光电影网真好!
回复 支持 反对

使用道具 举报

懒得打字嘛,点击右侧快捷回复 【右侧内容,后台自定义】
您需要登录后才可以回帖 登录 | 立即加入

本版积分规则

Archiver|小黑屋| 蓝光电影网 |网站地图

Copyright © 2021 Comsenz Inc. Powered by 蓝光电影网

蓝光电影网

本站内容由用户自主分享和转载自互联网,转载目的在于传递更多信息,并不代表本网赞同其观点和对其真实性负责。

如有侵权、违反国家法律政策行为,请联系我们,我们会第一时间及时清除和处理!

举报反馈邮箱:[email protected]

快速回复 返回顶部 返回列表