找回密码

蓝光电影网

查看: 13|回复: 0

[喜剧] 好奇的乔治/好奇猴乔治 Curious.George.2006.1080p.BluRay.X264-AMIABLE 4.37GB

[复制链接]
蓝光币
511
发表于 2020-11-29 09:05:24 | 显示全部楼层 |阅读模式


◎译  名 猎奇的乔治/猎奇猴乔治(台)
◎片  名 Curious George
◎年  代 2006
◎产  地 美国,德国
◎类  别 笑剧 / 动画 / 冒险
◎语  言 英语
◎上映日期 2006-02-10(美国) / 2006-05-25(德国)
◎IMDb评分  6.5/10 from 15387 users
◎IMDb链接  https://www.imdb.com/title/tt0381971/
◎豆瓣评分 7.7/10 from 2949 users
◎豆瓣链接 https://movie.douban.com/subject/1432616/
◎片  长 86分钟
◎导  演 马修·奥卡拉汉 Matthew O'Callaghan
◎编  剧 肯恩·考夫曼 Ken Kaufman / 麦克·韦柏 Mike Werb / 玛格丽特·雷 Margret Rey / H·A·雷 H.A. Rey
◎主  演 弗兰克·维尔克 Frank Welker
       威尔·法瑞尔 Will Ferrell
       德鲁·巴里摩尔 Drew Barrymore
       迪克·范·戴克 Dick Van Dyke
       尤金·列维 Eugene Levy
       大卫·克罗斯 David Cross
       比利·维斯特 Billy West
       杰夫·贝内特 Jeff Bennett
       迈克尔·索里奇 Michael Sorich
       埃德·欧罗斯 Ed O'Ross
       琼·普莱怀特 Joan Plowright
       凯斯·索西 Kath Soucie
       克林特·霍华德 Clint Howard
       谢恩·鲍梅尔 Shane Baumel
       提米娅-乔伊·比蒂 Timyra-Joi Beatty
       杰西·弗劳尔 Jessie Flower
       亚历山大·古尔德 Alexander Gould
       海莉·诺艾儿·强森 Hailey Noelle Johnson
       阿芮尔·温特 Ariel Winter
       Nadia Lewis
       理查德·埃帕卡 Richard Epcar
       乔伊·达奎利亚 Joey D'Auria
       埃迪·弗里森 Eddie Frierson
       特雷瓦·埃迪内 Treva Etienne
       里夫·霍顿 Rif Hutton
       凯特琳·麦肯纳-威尔金森 Caitlin McKenna-Wilkinson
◎标  签 动画 | 美国 | 2006 | 卡通 | 动物 | 笑剧 | 儿童 | 冒险
◎简  介


  影片改编自童书故事《猎奇小猴乔治》,这只心爱的小山公由玛格丽特&H.A.雷佳耦缔造。
  
  博物馆导游泰德酷爱自己的工作,其博学热情的讲授赢得了带门生来此参观的标致女教师麦琪。老馆长却公布了一个不幸的消息:由于参观的人数太少,博物馆面临着关张的逆境,唯一的拯救法子就是推出一项其他博物馆前所未见的新奇展品。老馆长出示给泰德一本带有舆图的奥秘日志,表白非洲扎格瓦部落丢失的一处圣陵地点,只要从中带回一尊大型神像,博物馆就有救了。泰德乘着汽船向非洲动身,到了森林后找到了舆图所示的陈腐神像,但完全不像老馆长描写的那样宏伟。而现在一只顽皮的小猴对泰德发生了爱好,一向尾随着他。在泰德动成分开非洲时,小山公也静静跟上了船。返国以后泰德接连遭受了无家可归、继而失业,与这只小猴相依为命并为它起名乔治。终极泰德能不能找到传闻中的神像?博物馆又能否能继续保持?
  1. Video
  2. ID                                       : 1
  3. Format                                   : AVC
  4. Format/Info                              : Advanced Video Codec
  5. Format profile                           : [email protected]
  6. Format settings                          : CABAC / 4 Ref Frames
  7. Format settings, CABAC                   : Yes
  8. Format settings, Reference frames        : 4 frames
  9. Codec ID                                 : V_MPEG4/ISO/AVC
  10. Duration                                 : 1 h 27 min
  11. Bit rate                                 : 5 656 kb/s
  12. Width                                    : 1 920 pixels
  13. Height                                   : 1 040 pixels
  14. Display aspect ratio                     : 1.85:1
  15. Frame rate mode                          : Constant
  16. Frame rate                               : 23.976 (24000/1001/189150) FPS
  17. Color space                              : YUV
  18. Chroma subsampling                       : 4:2:0
  19. Bit depth                                : 8 bits
  20. Scan type                                : Progressive
  21. Bits/(Pixel*Frame)                       : 0.118
  22. Stream size                              : 3.36 GiB (77%)
  23. Writing library                          : x264 core 144 r2525 40bb568
  24. Encoding settings                        : cabac=1 / ref=4 / deblock=1:0:0 / analyse=0x3:0x113 / me=umh / subme=8 / psy=1 / psy_rd=1.00:0.00 / mixed_ref=1 / me_range=16 / chroma_me=1 / trellis=1 / 8x8dct=1 / cqm=0 / deadzone=21,11 / fast_pskip=1 / chroma_qp_offset=-2 / threads=12 / lookahead_threads=2 / sliced_threads=0 / nr=0 / decimate=1 / interlaced=0 / bluray_compat=0 / constrained_intra=0 / bframes=3 / b_pyramid=2 / b_adapt=2 / b_bias=0 / direct=3 / weightb=1 / open_gop=0 / weightp=2 / keyint=240 / keyint_min=24 / scenecut=40 / intra_refresh=0 / rc_lookahead=50 / rc=2pass / mbtree=1 / bitrate=5656 / ratetol=1.0 / qcomp=0.60 / qpmin=0 / qpmax=69 / qpstep=4 / cplxblur=20.0 / qblur=0.5 / ip_ratio=1.40 / aq=1:1.00
  25. Language                                 : English
  26. Default                                  : Yes
  27. Forced                                   : No

  28. Audio
  29. ID                                       : 2
  30. Format                                   : DTS
  31. Format/Info                              : Digital Theater Systems
  32. Codec ID                                 : A_DTS
  33. Duration                                 : 1 h 27 min
  34. Bit rate mode                            : Constant
  35. Bit rate                                 : 1 509 kb/s
  36. Channel(s)                               : 6 channels
  37. ChannelLayout_Original                   : C L R Ls Rs LFE
  38. Sampling rate                            : 48.0 kHz
  39. Frame rate                               : 93.750 FPS (512 SPF)
  40. Bit depth                                : 24 bits
  41. Compression mode                         : Lossy
  42. Stream size                              : 942 MiB (21%)
  43. Language                                 : English
  44. Default                                  : Yes
  45. Forced                                   : No

  46. Text #1
  47. ID                                       : 3
  48. Format                                   : UTF-8
  49. Codec ID                                 : S_TEXT/UTF8
  50. Codec ID/Info                            : UTF-8 Plain Text
  51. Title                                    : SDH
  52. Language                                 : English
  53. Default                                  : No
  54. Forced                                   : No

  55. Text #2
  56. ID                                       : 4
  57. Format                                   : UTF-8
  58. Codec ID                                 : S_TEXT/UTF8
  59. Codec ID/Info                            : UTF-8 Plain Text
  60. Language                                 : English
  61. Default                                  : No
  62. Forced                                   : No

  63. Menu
  64. 00:00:00.000                             : en:00:00:00.000
  65. 00:04:02.701                             : en:00:04:02.701
  66. 00:06:23.925                             : en:00:06:23.925
  67. 00:11:38.323                             : en:00:11:38.323
  68. 00:15:14.872                             : en:00:15:14.872
  69. 00:18:27.231                             : en:00:18:27.231
  70. 00:21:21.322                             : en:00:21:21.322
  71. 00:25:11.635                             : en:00:25:11.635
  72. 00:30:11.393                             : en:00:30:11.393
  73. 00:35:00.765                             : en:00:35:00.765
  74. 00:40:41.397                             : en:00:40:41.397
  75. 00:46:10.393                             : en:00:46:10.393
  76. 00:51:26.875                             : en:00:51:26.875
  77. 00:56:25.674                             : en:00:56:25.674
  78. 00:59:00.829                             : en:00:59:00.829
  79. 01:04:51.638                             : en:01:04:51.638
  80. 01:08:38.323                             : en:01:08:38.323
  81. 01:12:33.683                             : en:01:12:33.683
  82. 01:14:21.624                             : en:01:14:21.624
  83. 01:18:00.217                             : en:01:18:00.217
复制代码









                                       
                                       

                                       
                                       
                                       




回复

使用道具 举报

懒得打字嘛,点击右侧快捷回复 【右侧内容,后台自定义】
您需要登录后才可以回帖 登录 | 立即加入

本版积分规则

Archiver|小黑屋| 蓝光电影网 |网站地图

Copyright © 2021 Comsenz Inc. Powered by 蓝光电影网

蓝光电影网

本站内容由用户自主分享和转载自互联网,转载目的在于传递更多信息,并不代表本网赞同其观点和对其真实性负责。

如有侵权、违反国家法律政策行为,请联系我们,我们会第一时间及时清除和处理!

举报反馈邮箱:[email protected]

快速回复 返回顶部 返回列表