找回密码

蓝光电影网

查看: 105|回复: 0

[动作] 夺宝奇兵 Indiana.Jones.And.The.Raiders.Of.The.Lost.Ark.1981.1080p.BluRay.REMUX.AVC.DTS-HD.MA.TrueHD.7.1.Atmos-FGT 37.95GB

[复制链接]
蓝光币
519
发表于 2021-7-9 09:53:55 | 显示全部楼层 |阅读模式


◎译  名 夺宝奇兵/Indiana Jones and the Raiders of the Lost Ark/印地安纳?琼斯之夺宝奇兵/夺宝奇兵:法柜奇兵/法柜奇兵
◎片  名 Raiders of the Lost Ark
◎年  代 1981
◎产  地 美国,英国
◎类  别 行动 / 冒险
◎语  言 英语,德语,希伯来语,西班牙语,阿拉伯语,尼泊尔语
◎上映日期 1981-06-12(美国)
◎豆瓣评分 7.9/10 from 77753 users
◎豆瓣链接 https://movie.douban.com/subject/1296717/
◎片  长 115 分钟
◎导  演 史蒂文·斯皮尔伯格 Steven Spielberg
◎编  剧 劳伦斯·卡斯丹 Lawrence Kasdan / 乔治·卢卡斯 George Lucas / 菲利普·考夫曼 Philip Kaufman
◎主  演 哈里森·福特 Harrison Ford
       凯伦·阿兰 Karen Allen
       保罗·弗里曼 Paul Freeman
       约翰·瑞斯-戴维斯 John Rhys-Davies
       基兰·沙阿 Kiran Shah
       弗兰克·马歇尔 Frank Marshall
       乔治·哈里斯 George Harris
       阿尔弗雷德·莫里纳 Alfred Molina
       帕特·罗奇 Pat Roach
       安东尼·希金斯 Anthony Higgins
       罗纳德·莱西 Ronald Lacey
       丹霍姆·艾略特 Denholm Elliott
       特里·伦纳德 Terry Leonard
       Nick Gillard Nick Gillard
◎标  签 冒险 | 斯皮尔伯格 | 美国 | 行动 | 探险 | 典范 | 美国电影 | 1981
◎简  介


  二战时代,希特勒在天下各地召集考古学家寻觅“失落的约柜”——圣经中指导希伯来人与天主交换的圣物,希特勒欲借其来护佑纳粹的战争。
  
  为了使希特勒的计划幻灭,印第安纳琼斯博士(Harrison Ford饰)奔赴尼泊尔,一边奋力挖掘千丝万缕,一边还要与无孔不入的纳粹份子周旋。凭仗着过人的聪明和异于凡人的胆子及大无畏的勇气,琼斯终究在罗马找到了指示约柜位置的太阳手杖,继而发现了约柜。
  
  就在大功乐成之际,纳粹军却并吞了成功果实,还将琼斯等人留在了蛇穴里!可是无往不胜的琼斯总是有法子死里逃生,并狠狠地还以色彩!
◎获奖情况
  第54届奥斯卡金像奖 ?(1982)
  最好影片(提名) 弗兰克·马歇尔
  最好导演(提名) 史蒂文·斯皮尔伯格
  最好摄影(提名) 道格拉斯·斯洛科姆
  最好剪辑 迈克尔·卡恩
  最好视觉结果 理查德·艾德兰德?/?乔·庄斯顿?/?基特·韦斯特?/?布鲁斯·尼科尔森
  最好声响 格雷格·兰达克?/?比尔·瓦尼?/?史蒂夫·马斯洛?/?罗伊·查尔曼
  最好艺术指导 诺曼·雷诺兹?/?莱斯利·迪利?/?迈克尔·福特
  最好原创配乐(提名) 约翰·威廉姆斯
  出格成就奖 理查德·路易斯·安德森?/?本·贝尔特
  1. Video
  2. ID                                       : 1
  3. Format                                   : AVC
  4. Format/Info                              : Advanced Video Codec
  5. Format profile                           : [email protected]
  6. Format settings                          : CABAC / 4 Ref Frames
  7. Format settings, CABAC                   : Yes
  8. Format settings, Reference frames        : 4 frames
  9. Codec ID                                 : V_MPEG4/ISO/AVC
  10. Duration                                 : 1 h 55 min
  11. Bit rate mode                            : Variable
  12. Bit rate                                 : 34.5 Mb/s
  13. Maximum bit rate                         : 36.0 Mb/s
  14. Width                                    : 1 920 pixels
  15. Height                                   : 1 080 pixels
  16. Display aspect ratio                     : 16:9
  17. Frame rate mode                          : Constant
  18. Frame rate                               : 23.976 (24000/1001/189150) FPS
  19. Color space                              : YUV
  20. Chroma subsampling                       : 4:2:0
  21. Bit depth                                : 8 bits
  22. Scan type                                : Progressive
  23. Bits/(Pixel*Frame)                       : 0.695
  24. Stream size                              : 27.8 GiB (73%)
  25. Title                                    : Indiana.Jones.And.The.Raiders.Of.The.Lost.Ark.1981.1080p.BluRay.REMUX.AVC.DTS-HD.MA.5.1-FGT
  26. Language                                 : English
  27. Default                                  : No
  28. Forced                                   : No
  29. Audio #1
  30. ID                                       : 2
  31. ID in the original source medium         : 4352 (0x1100)
  32. Format                                   : MLP FBA 16-ch
  33. Format/Info                              : Meridian Lossless Packing FBA with 16-channel presentation
  34. Commercial name                          : Dolby TrueHD with Dolby Atmos
  35. Codec ID                                 : A_TRUEHD
  36. Duration                                 : 1 h 55 min
  37. Bit rate mode                            : Variable
  38. Bit rate                                 : 3 761 kb/s
  39. Maximum bit rate                         : 5 607 kb/s
  40. Channel(s)                               : 8 channels
  41. Channel layout                           : L R C LFE Ls Rs Lb Rb
  42. Sampling rate                            : 48.0 kHz
  43. Frame rate                               : 1 200.000 FPS (40 SPF)
  44. Bit depth                                : 24 bits
  45. Compression mode                         : Lossless
  46. Stream size                              : 3.03 GiB (8%)
  47. Title                                    : TrueHD 7.1 Atmos
  48. Language                                 : English
  49. Default                                  : Yes
  50. Forced                                   : No
  51. Original source medium                   : Blu-ray
  52. Number of dynamic objects                : 11
  53. Bed channel count                        : 1 channel
  54. Bed channel configuration                : LFE
  55. Audio #2
  56. ID                                       : 3
  57. Format                                   : DTS XLL
  58. Format/Info                              : Digital Theater Systems
  59. Commercial name                          : DTS-HD Master Audio
  60. Codec ID                                 : A_DTS
  61. Duration                                 : 1 h 55 min
  62. Bit rate mode                            : Variable
  63. Bit rate                                 : 4 545 kb/s
  64. Channel(s)                               : 8 channels
  65. Channel layout                           : C L R LFE Lb Rb Lss Rss
  66. Sampling rate                            : 48.0 kHz
  67. Frame rate                               : 93.750 FPS (512 SPF)
  68. Bit depth                                : 24 bits
  69. Compression mode                         : Lossless
  70. Stream size                              : 3.66 GiB (10%)
  71. Title                                    : DTS-HD MA 7.1
  72. Language                                 : English
  73. Default                                  : No
  74. Forced                                   : No
  75. Audio #3
  76. ID                                       : 4
  77. ID in the original source medium         : 4352 (0x1100)
  78. Format                                   : AC-3
  79. Format/Info                              : Audio Coding 3
  80. Commercial name                          : Dolby Digital
  81. Format settings                          : Dolby Surround EX
  82. Codec ID                                 : A_AC3
  83. Duration                                 : 1 h 55 min
  84. Bit rate mode                            : Constant
  85. Bit rate                                 : 640 kb/s
  86. Channel(s)                               : 6 channels
  87. Channel layout                           : L R C LFE Ls Rs
  88. Sampling rate                            : 48.0 kHz
  89. Frame rate                               : 31.250 FPS (1536 SPF)
  90. Compression mode                         : Lossy
  91. Stream size                              : 528 MiB (1%)
  92. Title                                    : DD 5.1
  93. Language                                 : English
  94. Service kind                             : Complete Main
  95. Default                                  : No
  96. Forced                                   : No
  97. Original source medium                   : Blu-ray
  98. Audio #4
  99. ID                                       : 5
  100. ID in the original source medium         : 4353 (0x1101)
  101. Format                                   : AC-3
  102. Format/Info                              : Audio Coding 3
  103. Commercial name                          : Dolby Digital
  104. Codec ID                                 : A_AC3
  105. Duration                                 : 1 h 55 min
  106. Bit rate mode                            : Constant
  107. Bit rate                                 : 640 kb/s
  108. Channel(s)                               : 6 channels
  109. Channel layout                           : L R C LFE Ls Rs
  110. Sampling rate                            : 48.0 kHz
  111. Frame rate                               : 31.250 FPS (1536 SPF)
  112. Compression mode                         : Lossy
  113. Stream size                              : 528 MiB (1%)
  114. Title                                    : DD 5.1
  115. Language                                 : Spanish
  116. Service kind                             : Complete Main
  117. Default                                  : No
  118. Forced                                   : No
  119. Original source medium                   : Blu-ray
  120. Audio #5
  121. ID                                       : 6
  122. ID in the original source medium         : 4354 (0x1102)
  123. Format                                   : AC-3
  124. Format/Info                              : Audio Coding 3
  125. Commercial name                          : Dolby Digital
  126. Format settings                          : Dolby Surround
  127. Codec ID                                 : A_AC3
  128. Duration                                 : 1 h 55 min
  129. Bit rate mode                            : Constant
  130. Bit rate                                 : 224 kb/s
  131. Channel(s)                               : 2 channels
  132. Channel layout                           : L R
  133. Sampling rate                            : 48.0 kHz
  134. Frame rate                               : 31.250 FPS (1536 SPF)
  135. Compression mode                         : Lossy
  136. Stream size                              : 185 MiB (0%)
  137. Title                                    : DD 2.0
  138. Language                                 : Spanish
  139. Service kind                             : Complete Main
  140. Default                                  : No
  141. Forced                                   : No
  142. Original source medium                   : Blu-ray
  143. Audio #6
  144. ID                                       : 7
  145. ID in the original source medium         : 4355 (0x1103)
  146. Format                                   : AC-3
  147. Format/Info                              : Audio Coding 3
  148. Commercial name                          : Dolby Digital
  149. Codec ID                                 : A_AC3
  150. Duration                                 : 1 h 55 min
  151. Bit rate mode                            : Constant
  152. Bit rate                                 : 640 kb/s
  153. Channel(s)                               : 6 channels
  154. Channel layout                           : L R C LFE Ls Rs
  155. Sampling rate                            : 48.0 kHz
  156. Frame rate                               : 31.250 FPS (1536 SPF)
  157. Compression mode                         : Lossy
  158. Stream size                              : 528 MiB (1%)
  159. Title                                    : DD 5.1
  160. Language                                 : French
  161. Service kind                             : Complete Main
  162. Default                                  : No
  163. Forced                                   : No
  164. Original source medium                   : Blu-ray
  165. Audio #7
  166. ID                                       : 8
  167. ID in the original source medium         : 4356 (0x1104)
  168. Format                                   : AC-3
  169. Format/Info                              : Audio Coding 3
  170. Commercial name                          : Dolby Digital
  171. Codec ID                                 : A_AC3
  172. Duration                                 : 1 h 55 min
  173. Bit rate mode                            : Constant
  174. Bit rate                                 : 640 kb/s
  175. Channel(s)                               : 6 channels
  176. Channel layout                           : L R C LFE Ls Rs
  177. Sampling rate                            : 48.0 kHz
  178. Frame rate                               : 31.250 FPS (1536 SPF)
  179. Compression mode                         : Lossy
  180. Stream size                              : 528 MiB (1%)
  181. Title                                    : DD 5.1
  182. Language                                 : Italian
  183. Service kind                             : Complete Main
  184. Default                                  : No
  185. Forced                                   : No
  186. Original source medium                   : Blu-ray
  187. Audio #8
  188. ID                                       : 9
  189. ID in the original source medium         : 4357 (0x1105)
  190. Format                                   : AC-3
  191. Format/Info                              : Audio Coding 3
  192. Commercial name                          : Dolby Digital
  193. Format settings                          : Dolby Surround
  194. Codec ID                                 : A_AC3
  195. Duration                                 : 1 h 55 min
  196. Bit rate mode                            : Constant
  197. Bit rate                                 : 224 kb/s
  198. Channel(s)                               : 2 channels
  199. Channel layout                           : L R
  200. Sampling rate                            : 48.0 kHz
  201. Frame rate                               : 31.250 FPS (1536 SPF)
  202. Compression mode                         : Lossy
  203. Stream size                              : 185 MiB (0%)
  204. Title                                    : DD 2.0
  205. Language                                 : Italian
  206. Service kind                             : Complete Main
  207. Default                                  : No
  208. Forced                                   : No
  209. Original source medium                   : Blu-ray
  210. Audio #9
  211. ID                                       : 10
  212. ID in the original source medium         : 4358 (0x1106)
  213. Format                                   : AC-3
  214. Format/Info                              : Audio Coding 3
  215. Commercial name                          : Dolby Digital
  216. Codec ID                                 : A_AC3
  217. Duration                                 : 1 h 55 min
  218. Bit rate mode                            : Constant
  219. Bit rate                                 : 640 kb/s
  220. Channel(s)                               : 6 channels
  221. Channel layout                           : L R C LFE Ls Rs
  222. Sampling rate                            : 48.0 kHz
  223. Frame rate                               : 31.250 FPS (1536 SPF)
  224. Compression mode                         : Lossy
  225. Stream size                              : 528 MiB (1%)
  226. Title                                    : DD 5.1
  227. Language                                 : Japanese
  228. Service kind                             : Complete Main
  229. Default                                  : No
  230. Forced                                   : No
  231. Original source medium                   : Blu-ray
  232. Audio #10
  233. ID                                       : 11
  234. ID in the original source medium         : 4359 (0x1107)
  235. Format                                   : AC-3
  236. Format/Info                              : Audio Coding 3
  237. Commercial name                          : Dolby Digital
  238. Format settings                          : Dolby Surround
  239. Codec ID                                 : A_AC3
  240. Duration                                 : 1 h 55 min
  241. Bit rate mode                            : Constant
  242. Bit rate                                 : 224 kb/s
  243. Channel(s)                               : 2 channels
  244. Channel layout                           : L R
  245. Sampling rate                            : 48.0 kHz
  246. Frame rate                               : 31.250 FPS (1536 SPF)
  247. Compression mode                         : Lossy
  248. Stream size                              : 185 MiB (0%)
  249. Title                                    : DD 2.0
  250. Language                                 : Japanese
  251. Service kind                             : Complete Main
  252. Default                                  : No
  253. Forced                                   : No
  254. Original source medium                   : Blu-ray
  255. Audio #11
  256. ID                                       : 12
  257. ID in the original source medium         : 4360 (0x1108)
  258. Format                                   : AC-3
  259. Format/Info                              : Audio Coding 3
  260. Commercial name                          : Dolby Digital
  261. Format settings                          : Dolby Surround
  262. Codec ID                                 : A_AC3
  263. Duration                                 : 1 h 55 min
  264. Bit rate mode                            : Constant
  265. Bit rate                                 : 224 kb/s
  266. Channel(s)                               : 2 channels
  267. Channel layout                           : L R
  268. Sampling rate                            : 48.0 kHz
  269. Frame rate                               : 31.250 FPS (1536 SPF)
  270. Compression mode                         : Lossy
  271. Stream size                              : 185 MiB (0%)
  272. Title                                    : DD 2.0
  273. Language                                 : Russian
  274. Service kind                             : Complete Main
  275. Default                                  : No
  276. Forced                                   : No
  277. Original source medium                   : Blu-ray
  278. Text #1
  279. ID                                       : 13
  280. Format                                   : UTF-8
  281. Codec ID                                 : S_TEXT/UTF8
  282. Codec ID/Info                            : UTF-8 Plain Text
  283. Duration                                 : 1 h 48 min
  284. Bit rate                                 : 34 b/s
  285. Count of elements                        : 999
  286. Stream size                              : 26.9 KiB (0%)
  287. Title                                    : English-SRT
  288. Language                                 : English
  289. Default                                  : Yes
  290. Forced                                   : No
  291. Text #2
  292. ID                                       : 14
  293. ID in the original source medium         : 4768 (0x12A0)
  294. Format                                   : PGS
  295. Muxing mode                              : zlib
  296. Codec ID                                 : S_HDMV/PGS
  297. Codec ID/Info                            : Picture based subtitle format used on BDs/HD-DVDs
  298. Duration                                 : 1 h 48 min
  299. Bit rate                                 : 21.9 kb/s
  300. Count of elements                        : 2014
  301. Stream size                              : 17.0 MiB (0%)
  302. Language                                 : English
  303. Default                                  : No
  304. Forced                                   : No
  305. Original source medium                   : Blu-ray
  306. Text #3
  307. ID                                       : 15
  308. ID in the original source medium         : 4769 (0x12A1)
  309. Format                                   : PGS
  310. Muxing mode                              : zlib
  311. Codec ID                                 : S_HDMV/PGS
  312. Codec ID/Info                            : Picture based subtitle format used on BDs/HD-DVDs
  313. Duration                                 : 1 h 49 min
  314. Bit rate                                 : 26.1 kb/s
  315. Count of elements                        : 2450
  316. Stream size                              : 20.4 MiB (0%)
  317. Language                                 : English
  318. Default                                  : No
  319. Forced                                   : No
  320. Original source medium                   : Blu-ray
  321. Text #4
  322. ID                                       : 16
  323. ID in the original source medium         : 4770 (0x12A2)
  324. Format                                   : PGS
  325. Muxing mode                              : zlib
  326. Codec ID                                 : S_HDMV/PGS
  327. Codec ID/Info                            : Picture based subtitle format used on BDs/HD-DVDs
  328. Duration                                 : 1 h 52 min
  329. Bit rate                                 : 12.2 kb/s
  330. Count of elements                        : 1184
  331. Stream size                              : 9.90 MiB (0%)
  332. Language                                 : Chinese
  333. Default                                  : No
  334. Forced                                   : No
  335. Original source medium                   : Blu-ray
  336. Text #5
  337. ID                                       : 17
  338. ID in the original source medium         : 4771 (0x12A3)
  339. Format                                   : PGS
  340. Muxing mode                              : zlib
  341. Codec ID                                 : S_HDMV/PGS
  342. Codec ID/Info                            : Picture based subtitle format used on BDs/HD-DVDs
  343. Duration                                 : 1 h 53 min
  344. Bit rate                                 : 16.1 kb/s
  345. Count of elements                        : 1222
  346. Stream size                              : 13.0 MiB (0%)
  347. Language                                 : Danish
  348. Default                                  : No
  349. Forced                                   : No
  350. Original source medium                   : Blu-ray
  351. Text #6
  352. ID                                       : 18
  353. ID in the original source medium         : 4772 (0x12A4)
  354. Format                                   : PGS
  355. Muxing mode                              : zlib
  356. Codec ID                                 : S_HDMV/PGS
  357. Codec ID/Info                            : Picture based subtitle format used on BDs/HD-DVDs
  358. Duration                                 : 1 h 54 min
  359. Bit rate                                 : 16.6 kb/s
  360. Count of elements                        : 1186
  361. Stream size                              : 13.6 MiB (0%)
  362. Language                                 : Spanish
  363. Default                                  : No
  364. Forced                                   : No
  365. Original source medium                   : Blu-ray
  366. Text #7
  367. ID                                       : 19
  368. ID in the original source medium         : 4773 (0x12A5)
  369. Format                                   : PGS
  370. Muxing mode                              : zlib
  371. Codec ID                                 : S_HDMV/PGS
  372. Codec ID/Info                            : Picture based subtitle format used on BDs/HD-DVDs
  373. Duration                                 : 1 h 54 min
  374. Bit rate                                 : 17.0 kb/s
  375. Count of elements                        : 1176
  376. Stream size                              : 13.9 MiB (0%)
  377. Language                                 : French
  378. Default                                  : No
  379. Forced                                   : No
  380. Original source medium                   : Blu-ray
  381. Text #8
  382. ID                                       : 20
  383. ID in the original source medium         : 4774 (0x12A6)
  384. Format                                   : PGS
  385. Muxing mode                              : zlib
  386. Codec ID                                 : S_HDMV/PGS
  387. Codec ID/Info                            : Picture based subtitle format used on BDs/HD-DVDs
  388. Duration                                 : 1 h 54 min
  389. Bit rate                                 : 17.6 kb/s
  390. Count of elements                        : 1194
  391. Stream size                              : 14.5 MiB (0%)
  392. Language                                 : Italian
  393. Default                                  : No
  394. Forced                                   : No
  395. Original source medium                   : Blu-ray
  396. Text #9
  397. ID                                       : 21
  398. ID in the original source medium         : 4775 (0x12A7)
  399. Format                                   : PGS
  400. Muxing mode                              : zlib
  401. Codec ID                                 : S_HDMV/PGS
  402. Codec ID/Info                            : Picture based subtitle format used on BDs/HD-DVDs
  403. Duration                                 : 1 h 48 min
  404. Bit rate                                 : 13.5 kb/s
  405. Count of elements                        : 1352
  406. Stream size                              : 10.5 MiB (0%)
  407. Language                                 : Japanese
  408. Default                                  : No
  409. Forced                                   : No
  410. Original source medium                   : Blu-ray
  411. Text #10
  412. ID                                       : 22
  413. ID in the original source medium         : 4776 (0x12A8)
  414. Format                                   : PGS
  415. Muxing mode                              : zlib
  416. Codec ID                                 : S_HDMV/PGS
  417. Codec ID/Info                            : Picture based subtitle format used on BDs/HD-DVDs
  418. Duration                                 : 1 h 54 min
  419. Bit rate                                 : 11.5 kb/s
  420. Count of elements                        : 1548
  421. Stream size                              : 9.46 MiB (0%)
  422. Language                                 : Korean
  423. Default                                  : No
  424. Forced                                   : No
  425. Original source medium                   : Blu-ray
  426. Text #11
  427. ID                                       : 23
  428. ID in the original source medium         : 4777 (0x12A9)
  429. Format                                   : PGS
  430. Muxing mode                              : zlib
  431. Codec ID                                 : S_HDMV/PGS
  432. Codec ID/Info                            : Picture based subtitle format used on BDs/HD-DVDs
  433. Duration                                 : 1 h 54 min
  434. Bit rate                                 : 13.3 kb/s
  435. Count of elements                        : 1558
  436. Stream size                              : 10.9 MiB (0%)
  437. Language                                 : Chinese
  438. Default                                  : No
  439. Forced                                   : No
  440. Original source medium                   : Blu-ray
  441. Text #12
  442. ID                                       : 24
  443. ID in the original source medium         : 4778 (0x12AA)
  444. Format                                   : PGS
  445. Muxing mode                              : zlib
  446. Codec ID                                 : S_HDMV/PGS
  447. Codec ID/Info                            : Picture based subtitle format used on BDs/HD-DVDs
  448. Duration                                 : 1 h 53 min
  449. Bit rate                                 : 16.1 kb/s
  450. Count of elements                        : 1134
  451. Stream size                              : 13.0 MiB (0%)
  452. Language                                 : Dutch
  453. Default                                  : No
  454. Forced                                   : No
  455. Original source medium                   : Blu-ray
  456. Text #13
  457. ID                                       : 25
  458. ID in the original source medium         : 4779 (0x12AB)
  459. Format                                   : PGS
  460. Muxing mode                              : zlib
  461. Codec ID                                 : S_HDMV/PGS
  462. Codec ID/Info                            : Picture based subtitle format used on BDs/HD-DVDs
  463. Duration                                 : 1 h 53 min
  464. Bit rate                                 : 14.8 kb/s
  465. Count of elements                        : 1168
  466. Stream size                              : 12.0 MiB (0%)
  467. Language                                 : Norwegian
  468. Default                                  : No
  469. Forced                                   : No
  470. Original source medium                   : Blu-ray
  471. Text #14
  472. ID                                       : 26
  473. ID in the original source medium         : 4780 (0x12AC)
  474. Format                                   : PGS
  475. Muxing mode                              : zlib
  476. Codec ID                                 : S_HDMV/PGS
  477. Codec ID/Info                            : Picture based subtitle format used on BDs/HD-DVDs
  478. Duration                                 : 1 h 54 min
  479. Bit rate                                 : 16.5 kb/s
  480. Count of elements                        : 1158
  481. Stream size                              : 13.5 MiB (0%)
  482. Language                                 : Russian
  483. Default                                  : No
  484. Forced                                   : No
  485. Original source medium                   : Blu-ray
  486. Text #15
  487. ID                                       : 27
  488. ID in the original source medium         : 4781 (0x12AD)
  489. Format                                   : PGS
  490. Muxing mode                              : zlib
  491. Codec ID                                 : S_HDMV/PGS
  492. Codec ID/Info                            : Picture based subtitle format used on BDs/HD-DVDs
  493. Duration                                 : 1 h 54 min
  494. Bit rate                                 : 16.6 kb/s
  495. Count of elements                        : 1690
  496. Stream size                              : 13.6 MiB (0%)
  497. Language                                 : Chinese
  498. Default                                  : No
  499. Forced                                   : No
  500. Original source medium                   : Blu-ray
  501. Text #16
  502. ID                                       : 28
  503. ID in the original source medium         : 4782 (0x12AE)
  504. Format                                   : PGS
  505. Muxing mode                              : zlib
  506. Codec ID                                 : S_HDMV/PGS
  507. Codec ID/Info                            : Picture based subtitle format used on BDs/HD-DVDs
  508. Duration                                 : 1 h 53 min
  509. Bit rate                                 : 16.3 kb/s
  510. Count of elements                        : 1146
  511. Stream size                              : 13.2 MiB (0%)
  512. Language                                 : Finnish
  513. Default                                  : No
  514. Forced                                   : No
  515. Original source medium                   : Blu-ray
  516. Text #17
  517. ID                                       : 29
  518. ID in the original source medium         : 4783 (0x12AF)
  519. Format                                   : PGS
  520. Muxing mode                              : zlib
  521. Codec ID                                 : S_HDMV/PGS
  522. Codec ID/Info                            : Picture based subtitle format used on BDs/HD-DVDs
  523. Duration                                 : 1 h 53 min
  524. Bit rate                                 : 14.5 kb/s
  525. Count of elements                        : 1168
  526. Stream size                              : 11.7 MiB (0%)
  527. Language                                 : Swedish
  528. Default                                  : No
  529. Forced                                   : No
  530. Original source medium                   : Blu-ray
  531. Text #18
  532. ID                                       : 30
  533. ID in the original source medium         : 4784 (0x12B0)
  534. Format                                   : PGS
  535. Muxing mode                              : zlib
  536. Codec ID                                 : S_HDMV/PGS
  537. Codec ID/Info                            : Picture based subtitle format used on BDs/HD-DVDs
  538. Duration                                 : 1 h 54 min
  539. Bit rate                                 : 14.2 kb/s
  540. Count of elements                        : 1620
  541. Stream size                              : 11.6 MiB (0%)
  542. Language                                 : Thai
  543. Default                                  : No
  544. Forced                                   : No
  545. Original source medium                   : Blu-ray
  546. Text #19
  547. ID                                       : 31
  548. ID in the original source medium         : 4785 (0x12B1)
  549. Format                                   : PGS
  550. Muxing mode                              : zlib
  551. Codec ID                                 : S_HDMV/PGS
  552. Codec ID/Info                            : Picture based subtitle format used on BDs/HD-DVDs
  553. Duration                                 : 1 h 48 min
  554. Bit rate                                 : 83 b/s
  555. Count of elements                        : 10
  556. Stream size                              : 66.4 KiB (0%)
  557. Language                                 : Japanese
  558. Default                                  : No
  559. Forced                                   : No
  560. Original source medium                   : Blu-ray
  561. Menu
  562. 00:00:00.000                             : Chapter 01
  563. 00:03:16.404                             : Chapter 02
  564. 00:05:44.635                             : Chapter 03
  565. 00:09:50.923                             : Chapter 04
  566. 00:12:49.643                             : Chapter 05
  567. 00:15:23.631                             : Chapter 06
  568. 00:20:27.142                             : Chapter 07
  569. 00:22:58.001                             : Chapter 08
  570. 00:28:51.187                             : Chapter 09
  571. 00:33:42.311                             : Chapter 10
  572. 00:36:23.389                             : Chapter 11
  573. 00:40:04.652                             : Chapter 12
  574. 00:42:16.158                             : Chapter 13
  575. 00:46:41.381                             : Chapter 14
  576. 00:49:32.928                             : Chapter 15
  577. 00:51:00.932                             : Chapter 16
  578. 00:55:10.765                             : Chapter 17
  579. 00:58:33.051                             : Chapter 18
  580. 01:03:05.740                             : Chapter 19
  581. 01:08:26.143                             : Chapter 20
  582. 01:10:25.346                             : Chapter 21
  583. 01:15:33.153                             : Chapter 22
  584. 01:22:24.356                             : Chapter 23
  585. 01:25:43.763                             : Chapter 24
  586. 01:29:57.517                             : Chapter 25
  587. 01:34:30.539                             : Chapter 26
  588. 01:38:06.088                             : Chapter 27
  589. 01:41:06.018                             : Chapter 28
  590. 01:44:06.907                             : Chapter 29
  591. 01:47:01.415                             : Chapter 30
  592. 01:49:05.664                             : Chapter 31
复制代码






                                       
                                       

                                       
                                       
                                       




夺宝奇兵 Indiana.Jones.And.The.Raiders.Of.The.Lost.Ark.1981.1080p.BluRay.REMUX.AVC.DTS-HD.MA.TrueHD.7.1.Atmos-FGT 37.95GB

Indiana.Jones.And.The.Raiders.Of.The.Lost.Ark.1981.1080p.BluRay.REMUX.AVC.DTS-HD.torrent

48.17 KB, 下载次数: 6, 下载积分: 蓝光币 -2

回复

使用道具 举报

懒得打字嘛,点击右侧快捷回复 【右侧内容,后台自定义】
您需要登录后才可以回帖 登录 | 立即加入

本版积分规则

Archiver|小黑屋| 蓝光电影网 |网站地图

Copyright © 2021 Comsenz Inc. Powered by 蓝光电影网

蓝光电影网

本站内容由用户自主分享和转载自互联网,转载目的在于传递更多信息,并不代表本网赞同其观点和对其真实性负责。

如有侵权、违反国家法律政策行为,请联系我们,我们会第一时间及时清除和处理!

举报反馈邮箱:[email protected]

快速回复 返回顶部 返回列表