找回密码

蓝光电影网

查看: 154|回复: 0

[动作] 真人快打 Mortal.Kombat.2021.1080p.BluRay.REMUX.AVC.DTS-HD.MA.TrueHD.7.1.Atmos-FGT 32.61GB

[复制链接]
蓝光币
515
发表于 2021-7-3 15:00:33 | 显示全部楼层 |阅读模式


◎译  名 真人快打/MK3: Domination/Mortal Kombat 3/Mortal Kombat: Devastation/肉搏之王/真人快打:扑灭
◎片  名 Mortal Kombat
◎年  代 2021
◎产  地 美国
◎类  别 行动 / 奇异 / 冒险
◎语  言 英语,日语,汉语普通话
◎上映日期 2021-04-08(中国香港) / 2021-04-23(美国)
◎豆瓣评分 5.2/10 from 18202 users
◎豆瓣链接 https://movie.douban.com/subject/2131664/
◎片  长 110分钟
◎导  演 西蒙·麦奎德 Simon McQuoid
◎编  剧 格雷格·罗素 Greg Russo / 戴夫·卡拉汉姆 Dave Callaham / 奥伦·尤济尔 Oren Uziel / 埃德·布恩 Ed Boon / 约翰·托拜亚斯 John Tobias
◎主  演 刘易斯·陈 Lewis Tan
       乔·塔斯利姆 Joe Taslim
       真田广之 Hiroyuki Sanada
       杰西卡·麦克娜美 Jessica McNamee
       约什·劳森 Josh Lawson
       麦卡德·布鲁克斯 Mehcad Brooks
       林路迪 Ludi Lin
       浅野忠信 Tadanobu Asano
       黄经汉 Chin Han
       麦克斯?黄 Max Huang
       茜茜·斯特林格 Sisi Stringer
       梅尔·贾森 Mel Jarnson
       丹尼尔·尼尔森 Daniel Nelson
       劳拉·布伦特 Laura Brent
       马蒂尔达·金伯 Matilda Kimber
       艾丽莎·卡德维尔 Elissa Cadwell
       内森·琼斯 Nathan Jones
       克里斯·麦奎德 Kris McQuade
       大卫·菲尔德 David Field
◎标  签 行动 | 游戏改编 | 美国 | 暴力 | 血腥 | 2021 | 奇异 | 冒险
◎简  介


  科尔(刘易斯·陈 Lewis Tan 饰)是一位身手很是强健,但生活非常落魄的拳手,某日,他稀里糊涂的遭到了冷冻术士绝对零度(乔·塔斯利姆 Joe Taslim 饰)的追杀。在特种军队少校贾克斯(麦卡德·布鲁克斯 Mehcad Brooks 饰)的帮助之下,科尔死里逃生,而且出发起头寻觅一位叫做索尼娅(杰西卡·麦克娜美 Jessica McNamee 饰)的女子。
  
  以后,科尔来到了地球阳世保护者雷电(浅野忠信 饰)的神庙当中,在这里,他碰见了战士刘康(林路迪 饰)和佣兵卡诺(约什·劳森 Josh Lawson 饰)等人,他们唯一的配合点就是身上都有着奥秘的龙形标志。一行人行将在这里接管很是严酷的练习,以匹敌来自异星仇敌的侵犯,庇护宇宙的战争。
  1. Video
  2. ID                                       : 1
  3. ID in the original source medium         : 4113 (0x1011)
  4. Format                                   : AVC
  5. Format/Info                              : Advanced Video Codec
  6. Format profile                           : [email protected]
  7. Format settings                          : CABAC / 4 Ref Frames
  8. Format settings, CABAC                   : Yes
  9. Format settings, Reference frames        : 4 frames
  10. Codec ID                                 : V_MPEG4/ISO/AVC
  11. Duration                                 : 1 h 50 min
  12. Bit rate mode                            : Variable
  13. Bit rate                                 : 28.3 Mb/s
  14. Maximum bit rate                         : 31.0 Mb/s
  15. Width                                    : 1 920 pixels
  16. Height                                   : 1 080 pixels
  17. Display aspect ratio                     : 16:9
  18. Frame rate mode                          : Constant
  19. Frame rate                               : 23.976 (24000/1001/189150) FPS
  20. Color space                              : YUV
  21. Chroma subsampling                       : 4:2:0
  22. Bit depth                                : 8 bits
  23. Scan type                                : Progressive
  24. Bits/(Pixel*Frame)                       : 0.569
  25. Stream size                              : 21.8 GiB (67%)
  26. Language                                 : English
  27. Default                                  : No
  28. Forced                                   : No
  29. Original source medium                   : Blu-ray
  30. Audio #1
  31. ID                                       : 2
  32. ID in the original source medium         : 4352 (0x1100)
  33. Format                                   : MLP FBA 16-ch
  34. Format/Info                              : Meridian Lossless Packing FBA with 16-channel presentation
  35. Commercial name                          : Dolby TrueHD with Dolby Atmos
  36. Codec ID                                 : A_TRUEHD
  37. Duration                                 : 1 h 50 min
  38. Bit rate mode                            : Variable
  39. Bit rate                                 : 3 449 kb/s
  40. Maximum bit rate                         : 5 781 kb/s
  41. Channel(s)                               : 8 channels
  42. Channel layout                           : L R C LFE Ls Rs Lb Rb
  43. Sampling rate                            : 48.0 kHz
  44. Frame rate                               : 1 200.000 FPS (40 SPF)
  45. Bit depth                                : 24 bits
  46. Compression mode                         : Lossless
  47. Stream size                              : 2.65 GiB (8%)
  48. Title                                    : TrueHD 7.1 Atmos
  49. Language                                 : English
  50. Default                                  : Yes
  51. Forced                                   : No
  52. Original source medium                   : Blu-ray
  53. Number of dynamic objects                : 11
  54. Bed channel count                        : 1 channel
  55. Bed channel configuration                : LFE
  56. Audio #2
  57. ID                                       : 3
  58. Format                                   : DTS XLL
  59. Format/Info                              : Digital Theater Systems
  60. Commercial name                          : DTS-HD Master Audio
  61. Codec ID                                 : A_DTS
  62. Duration                                 : 1 h 50 min
  63. Bit rate mode                            : Variable
  64. Bit rate                                 : 4 109 kb/s
  65. Channel(s)                               : 8 channels
  66. Channel layout                           : C L R LFE Lb Rb Lss Rss
  67. Sampling rate                            : 48.0 kHz
  68. Frame rate                               : 93.750 FPS (512 SPF)
  69. Bit depth                                : 24 bits
  70. Compression mode                         : Lossless
  71. Stream size                              : 3.16 GiB (10%)
  72. Title                                    : DTS-HD MA 7.1
  73. Language                                 : English
  74. Default                                  : No
  75. Forced                                   : No
  76. Audio #3
  77. ID                                       : 4
  78. ID in the original source medium         : 4352 (0x1100)
  79. Format                                   : AC-3
  80. Format/Info                              : Audio Coding 3
  81. Commercial name                          : Dolby Digital
  82. Format settings                          : Dolby Surround EX
  83. Codec ID                                 : A_AC3
  84. Duration                                 : 1 h 50 min
  85. Bit rate mode                            : Constant
  86. Bit rate                                 : 448 kb/s
  87. Channel(s)                               : 6 channels
  88. Channel layout                           : L R C LFE Ls Rs
  89. Sampling rate                            : 48.0 kHz
  90. Frame rate                               : 31.250 FPS (1536 SPF)
  91. Compression mode                         : Lossy
  92. Stream size                              : 353 MiB (1%)
  93. Title                                    : DD 5.1
  94. Language                                 : English
  95. Service kind                             : Complete Main
  96. Default                                  : No
  97. Forced                                   : No
  98. Original source medium                   : Blu-ray
  99. Audio #4
  100. ID                                       : 5
  101. ID in the original source medium         : 4353 (0x1101)
  102. Format                                   : AC-3
  103. Format/Info                              : Audio Coding 3
  104. Commercial name                          : Dolby Digital
  105. Codec ID                                 : A_AC3
  106. Duration                                 : 1 h 50 min
  107. Bit rate mode                            : Constant
  108. Bit rate                                 : 640 kb/s
  109. Channel(s)                               : 6 channels
  110. Channel layout                           : L R C LFE Ls Rs
  111. Sampling rate                            : 48.0 kHz
  112. Frame rate                               : 31.250 FPS (1536 SPF)
  113. Compression mode                         : Lossy
  114. Stream size                              : 504 MiB (2%)
  115. Title                                    : DD 5.1
  116. Language                                 : English
  117. Service kind                             : Complete Main
  118. Default                                  : No
  119. Forced                                   : No
  120. Original source medium                   : Blu-ray
  121. Audio #5
  122. ID                                       : 6
  123. ID in the original source medium         : 4354 (0x1102)
  124. Format                                   : AC-3
  125. Format/Info                              : Audio Coding 3
  126. Commercial name                          : Dolby Digital
  127. Codec ID                                 : A_AC3
  128. Duration                                 : 1 h 50 min
  129. Bit rate mode                            : Constant
  130. Bit rate                                 : 640 kb/s
  131. Channel(s)                               : 6 channels
  132. Channel layout                           : L R C LFE Ls Rs
  133. Sampling rate                            : 48.0 kHz
  134. Frame rate                               : 31.250 FPS (1536 SPF)
  135. Compression mode                         : Lossy
  136. Stream size                              : 504 MiB (2%)
  137. Title                                    : DD 5.1
  138. Language                                 : English
  139. Service kind                             : Complete Main
  140. Default                                  : No
  141. Forced                                   : No
  142. Original source medium                   : Blu-ray
  143. Audio #6
  144. ID                                       : 7
  145. ID in the original source medium         : 4355 (0x1103)
  146. Format                                   : AC-3
  147. Format/Info                              : Audio Coding 3
  148. Commercial name                          : Dolby Digital
  149. Codec ID                                 : A_AC3
  150. Duration                                 : 1 h 50 min
  151. Bit rate mode                            : Constant
  152. Bit rate                                 : 640 kb/s
  153. Channel(s)                               : 6 channels
  154. Channel layout                           : L R C LFE Ls Rs
  155. Sampling rate                            : 48.0 kHz
  156. Frame rate                               : 31.250 FPS (1536 SPF)
  157. Compression mode                         : Lossy
  158. Stream size                              : 504 MiB (2%)
  159. Title                                    : DD 5.1
  160. Language                                 : French
  161. Service kind                             : Complete Main
  162. Default                                  : No
  163. Forced                                   : No
  164. Original source medium                   : Blu-ray
  165. Audio #7
  166. ID                                       : 8
  167. ID in the original source medium         : 4356 (0x1104)
  168. Format                                   : AC-3
  169. Format/Info                              : Audio Coding 3
  170. Commercial name                          : Dolby Digital
  171. Codec ID                                 : A_AC3
  172. Duration                                 : 1 h 50 min
  173. Bit rate mode                            : Constant
  174. Bit rate                                 : 640 kb/s
  175. Channel(s)                               : 6 channels
  176. Channel layout                           : L R C LFE Ls Rs
  177. Sampling rate                            : 48.0 kHz
  178. Frame rate                               : 31.250 FPS (1536 SPF)
  179. Compression mode                         : Lossy
  180. Stream size                              : 504 MiB (2%)
  181. Title                                    : DD 5.1
  182. Language                                 : French
  183. Service kind                             : Complete Main
  184. Default                                  : No
  185. Forced                                   : No
  186. Original source medium                   : Blu-ray
  187. Audio #8
  188. ID                                       : 9
  189. ID in the original source medium         : 4357 (0x1105)
  190. Format                                   : AC-3
  191. Format/Info                              : Audio Coding 3
  192. Commercial name                          : Dolby Digital
  193. Codec ID                                 : A_AC3
  194. Duration                                 : 1 h 50 min
  195. Bit rate mode                            : Constant
  196. Bit rate                                 : 640 kb/s
  197. Channel(s)                               : 6 channels
  198. Channel layout                           : L R C LFE Ls Rs
  199. Sampling rate                            : 48.0 kHz
  200. Frame rate                               : 31.250 FPS (1536 SPF)
  201. Compression mode                         : Lossy
  202. Stream size                              : 504 MiB (2%)
  203. Title                                    : DD 5.1
  204. Language                                 : German
  205. Service kind                             : Complete Main
  206. Default                                  : No
  207. Forced                                   : No
  208. Original source medium                   : Blu-ray
  209. Audio #9
  210. ID                                       : 10
  211. ID in the original source medium         : 4358 (0x1106)
  212. Format                                   : AC-3
  213. Format/Info                              : Audio Coding 3
  214. Commercial name                          : Dolby Digital
  215. Format settings                          : Dolby Surround
  216. Codec ID                                 : A_AC3
  217. Duration                                 : 1 h 50 min
  218. Bit rate mode                            : Constant
  219. Bit rate                                 : 192 kb/s
  220. Channel(s)                               : 2 channels
  221. Channel layout                           : L R
  222. Sampling rate                            : 48.0 kHz
  223. Frame rate                               : 31.250 FPS (1536 SPF)
  224. Compression mode                         : Lossy
  225. Stream size                              : 151 MiB (0%)
  226. Title                                    : DD 2.0
  227. Language                                 : German
  228. Service kind                             : Complete Main
  229. Default                                  : No
  230. Forced                                   : No
  231. Original source medium                   : Blu-ray
  232. Audio #10
  233. ID                                       : 11
  234. ID in the original source medium         : 4359 (0x1107)
  235. Format                                   : AC-3
  236. Format/Info                              : Audio Coding 3
  237. Commercial name                          : Dolby Digital
  238. Codec ID                                 : A_AC3
  239. Duration                                 : 1 h 50 min
  240. Bit rate mode                            : Constant
  241. Bit rate                                 : 640 kb/s
  242. Channel(s)                               : 6 channels
  243. Channel layout                           : L R C LFE Ls Rs
  244. Sampling rate                            : 48.0 kHz
  245. Frame rate                               : 31.250 FPS (1536 SPF)
  246. Compression mode                         : Lossy
  247. Stream size                              : 504 MiB (2%)
  248. Title                                    : DD 5.1
  249. Language                                 : Italian
  250. Service kind                             : Complete Main
  251. Default                                  : No
  252. Forced                                   : No
  253. Original source medium                   : Blu-ray
  254. Audio #11
  255. ID                                       : 12
  256. ID in the original source medium         : 4360 (0x1108)
  257. Format                                   : AC-3
  258. Format/Info                              : Audio Coding 3
  259. Commercial name                          : Dolby Digital
  260. Codec ID                                 : A_AC3
  261. Duration                                 : 1 h 50 min
  262. Bit rate mode                            : Constant
  263. Bit rate                                 : 640 kb/s
  264. Channel(s)                               : 6 channels
  265. Channel layout                           : L R C LFE Ls Rs
  266. Sampling rate                            : 48.0 kHz
  267. Frame rate                               : 31.250 FPS (1536 SPF)
  268. Compression mode                         : Lossy
  269. Stream size                              : 504 MiB (2%)
  270. Title                                    : DD 5.1
  271. Language                                 : Spanish
  272. Service kind                             : Complete Main
  273. Default                                  : No
  274. Forced                                   : No
  275. Original source medium                   : Blu-ray
  276. Audio #12
  277. ID                                       : 13
  278. ID in the original source medium         : 4361 (0x1109)
  279. Format                                   : AC-3
  280. Format/Info                              : Audio Coding 3
  281. Commercial name                          : Dolby Digital
  282. Codec ID                                 : A_AC3
  283. Duration                                 : 1 h 50 min
  284. Bit rate mode                            : Constant
  285. Bit rate                                 : 640 kb/s
  286. Channel(s)                               : 6 channels
  287. Channel layout                           : L R C LFE Ls Rs
  288. Sampling rate                            : 48.0 kHz
  289. Frame rate                               : 31.250 FPS (1536 SPF)
  290. Compression mode                         : Lossy
  291. Stream size                              : 504 MiB (2%)
  292. Title                                    : DD 5.1
  293. Language                                 : Spanish
  294. Service kind                             : Complete Main
  295. Default                                  : No
  296. Forced                                   : No
  297. Original source medium                   : Blu-ray
  298. Audio #13
  299. ID                                       : 14
  300. ID in the original source medium         : 4362 (0x110A)
  301. Format                                   : AC-3
  302. Format/Info                              : Audio Coding 3
  303. Commercial name                          : Dolby Digital
  304. Codec ID                                 : A_AC3
  305. Duration                                 : 1 h 50 min
  306. Bit rate mode                            : Constant
  307. Bit rate                                 : 640 kb/s
  308. Channel(s)                               : 6 channels
  309. Channel layout                           : L R C LFE Ls Rs
  310. Sampling rate                            : 48.0 kHz
  311. Frame rate                               : 31.250 FPS (1536 SPF)
  312. Compression mode                         : Lossy
  313. Stream size                              : 504 MiB (2%)
  314. Title                                    : DD 5.1
  315. Language                                 : Portuguese
  316. Service kind                             : Complete Main
  317. Default                                  : No
  318. Forced                                   : No
  319. Original source medium                   : Blu-ray
  320. Text #1
  321. ID                                       : 15
  322. Format                                   : UTF-8
  323. Codec ID                                 : S_TEXT/UTF8
  324. Codec ID/Info                            : UTF-8 Plain Text
  325. Duration                                 : 1 h 27 min
  326. Bit rate                                 : 40 b/s
  327. Count of elements                        : 996
  328. Stream size                              : 25.9 KiB (0%)
  329. Title                                    : SRT
  330. Language                                 : English
  331. Default                                  : Yes
  332. Forced                                   : No
  333. Text #2
  334. ID                                       : 16
  335. ID in the original source medium         : 4608 (0x1200)
  336. Format                                   : PGS
  337. Muxing mode                              : zlib
  338. Codec ID                                 : S_HDMV/PGS
  339. Codec ID/Info                            : Picture based subtitle format used on BDs/HD-DVDs
  340. Duration                                 : 1 h 41 min
  341. Bit rate                                 : 28.4 kb/s
  342. Count of elements                        : 2740
  343. Stream size                              : 20.6 MiB (0%)
  344. Language                                 : English
  345. Default                                  : No
  346. Forced                                   : No
  347. Original source medium                   : Blu-ray
  348. Text #3
  349. ID                                       : 17
  350. ID in the original source medium         : 4609 (0x1201)
  351. Format                                   : PGS
  352. Muxing mode                              : zlib
  353. Codec ID                                 : S_HDMV/PGS
  354. Codec ID/Info                            : Picture based subtitle format used on BDs/HD-DVDs
  355. Duration                                 : 1 h 48 min
  356. Bit rate                                 : 17.3 kb/s
  357. Count of elements                        : 1924
  358. Stream size                              : 13.4 MiB (0%)
  359. Language                                 : French
  360. Default                                  : No
  361. Forced                                   : No
  362. Original source medium                   : Blu-ray
  363. Text #4
  364. ID                                       : 18
  365. ID in the original source medium         : 4610 (0x1202)
  366. Format                                   : PGS
  367. Muxing mode                              : zlib
  368. Codec ID                                 : S_HDMV/PGS
  369. Codec ID/Info                            : Picture based subtitle format used on BDs/HD-DVDs
  370. Duration                                 : 1 h 40 min
  371. Bit rate                                 : 29.2 kb/s
  372. Count of elements                        : 2008
  373. Stream size                              : 21.0 MiB (0%)
  374. Language                                 : German
  375. Default                                  : No
  376. Forced                                   : No
  377. Original source medium                   : Blu-ray
  378. Text #5
  379. ID                                       : 19
  380. ID in the original source medium         : 4611 (0x1203)
  381. Format                                   : PGS
  382. Muxing mode                              : zlib
  383. Codec ID                                 : S_HDMV/PGS
  384. Codec ID/Info                            : Picture based subtitle format used on BDs/HD-DVDs
  385. Duration                                 : 1 h 49 min
  386. Bit rate                                 : 27.2 kb/s
  387. Count of elements                        : 2830
  388. Stream size                              : 21.4 MiB (0%)
  389. Language                                 : Italian
  390. Default                                  : No
  391. Forced                                   : No
  392. Original source medium                   : Blu-ray
  393. Text #6
  394. ID                                       : 20
  395. ID in the original source medium         : 4612 (0x1204)
  396. Format                                   : PGS
  397. Muxing mode                              : zlib
  398. Codec ID                                 : S_HDMV/PGS
  399. Codec ID/Info                            : Picture based subtitle format used on BDs/HD-DVDs
  400. Duration                                 : 1 h 48 min
  401. Bit rate                                 : 20.5 kb/s
  402. Count of elements                        : 1906
  403. Stream size                              : 16.0 MiB (0%)
  404. Language                                 : Spanish
  405. Default                                  : No
  406. Forced                                   : No
  407. Original source medium                   : Blu-ray
  408. Text #7
  409. ID                                       : 21
  410. ID in the original source medium         : 4613 (0x1205)
  411. Format                                   : PGS
  412. Muxing mode                              : zlib
  413. Codec ID                                 : S_HDMV/PGS
  414. Codec ID/Info                            : Picture based subtitle format used on BDs/HD-DVDs
  415. Duration                                 : 1 h 48 min
  416. Bit rate                                 : 19.9 kb/s
  417. Count of elements                        : 1862
  418. Stream size                              : 15.5 MiB (0%)
  419. Language                                 : Dutch
  420. Default                                  : No
  421. Forced                                   : No
  422. Original source medium                   : Blu-ray
  423. Text #8
  424. ID                                       : 22
  425. ID in the original source medium         : 4614 (0x1206)
  426. Format                                   : PGS
  427. Muxing mode                              : zlib
  428. Codec ID                                 : S_HDMV/PGS
  429. Codec ID/Info                            : Picture based subtitle format used on BDs/HD-DVDs
  430. Duration                                 : 1 h 37 min
  431. Bit rate                                 : 23.5 kb/s
  432. Count of elements                        : 1910
  433. Stream size                              : 16.4 MiB (0%)
  434. Language                                 : Spanish
  435. Default                                  : No
  436. Forced                                   : No
  437. Original source medium                   : Blu-ray
  438. Text #9
  439. ID                                       : 23
  440. ID in the original source medium         : 4615 (0x1207)
  441. Format                                   : PGS
  442. Muxing mode                              : zlib
  443. Codec ID                                 : S_HDMV/PGS
  444. Codec ID/Info                            : Picture based subtitle format used on BDs/HD-DVDs
  445. Duration                                 : 1 h 48 min
  446. Bit rate                                 : 19.4 kb/s
  447. Count of elements                        : 1906
  448. Stream size                              : 15.1 MiB (0%)
  449. Language                                 : Portuguese
  450. Default                                  : No
  451. Forced                                   : No
  452. Original source medium                   : Blu-ray
  453. Text #10
  454. ID                                       : 24
  455. ID in the original source medium         : 4616 (0x1208)
  456. Format                                   : PGS
  457. Muxing mode                              : zlib
  458. Codec ID                                 : S_HDMV/PGS
  459. Codec ID/Info                            : Picture based subtitle format used on BDs/HD-DVDs
  460. Duration                                 : 1 h 48 min
  461. Bit rate                                 : 17.7 kb/s
  462. Count of elements                        : 1246
  463. Stream size                              : 13.8 MiB (0%)
  464. Language                                 : Danish
  465. Default                                  : No
  466. Forced                                   : No
  467. Original source medium                   : Blu-ray
  468. Text #11
  469. ID                                       : 25
  470. ID in the original source medium         : 4617 (0x1209)
  471. Format                                   : PGS
  472. Muxing mode                              : zlib
  473. Codec ID                                 : S_HDMV/PGS
  474. Codec ID/Info                            : Picture based subtitle format used on BDs/HD-DVDs
  475. Duration                                 : 1 h 48 min
  476. Bit rate                                 : 21.4 kb/s
  477. Count of elements                        : 1928
  478. Stream size                              : 16.7 MiB (0%)
  479. Language                                 : Finnish
  480. Default                                  : No
  481. Forced                                   : No
  482. Original source medium                   : Blu-ray
  483. Text #12
  484. ID                                       : 26
  485. ID in the original source medium         : 4618 (0x120A)
  486. Format                                   : PGS
  487. Muxing mode                              : zlib
  488. Codec ID                                 : S_HDMV/PGS
  489. Codec ID/Info                            : Picture based subtitle format used on BDs/HD-DVDs
  490. Duration                                 : 1 h 48 min
  491. Bit rate                                 : 19.9 kb/s
  492. Count of elements                        : 1910
  493. Stream size                              : 15.5 MiB (0%)
  494. Language                                 : Greek
  495. Default                                  : No
  496. Forced                                   : No
  497. Original source medium                   : Blu-ray
  498. Text #13
  499. ID                                       : 27
  500. ID in the original source medium         : 4619 (0x120B)
  501. Format                                   : PGS
  502. Muxing mode                              : zlib
  503. Codec ID                                 : S_HDMV/PGS
  504. Codec ID/Info                            : Picture based subtitle format used on BDs/HD-DVDs
  505. Duration                                 : 1 h 48 min
  506. Bit rate                                 : 18.7 kb/s
  507. Count of elements                        : 1542
  508. Stream size                              : 14.5 MiB (0%)
  509. Language                                 : Norwegian
  510. Default                                  : No
  511. Forced                                   : No
  512. Original source medium                   : Blu-ray
  513. Text #14
  514. ID                                       : 28
  515. ID in the original source medium         : 4620 (0x120C)
  516. Format                                   : PGS
  517. Muxing mode                              : zlib
  518. Codec ID                                 : S_HDMV/PGS
  519. Codec ID/Info                            : Picture based subtitle format used on BDs/HD-DVDs
  520. Duration                                 : 1 h 48 min
  521. Bit rate                                 : 18.1 kb/s
  522. Count of elements                        : 1486
  523. Stream size                              : 14.1 MiB (0%)
  524. Language                                 : Swedish
  525. Default                                  : No
  526. Forced                                   : No
  527. Original source medium                   : Blu-ray
  528. Text #15
  529. ID                                       : 29
  530. ID in the original source medium         : 4621 (0x120D)
  531. Format                                   : PGS
  532. Muxing mode                              : zlib
  533. Codec ID                                 : S_HDMV/PGS
  534. Codec ID/Info                            : Picture based subtitle format used on BDs/HD-DVDs
  535. Duration                                 : 1 h 37 min
  536. Bit rate                                 : 1 308 b/s
  537. Count of elements                        : 102
  538. Stream size                              : 938 KiB (0%)
  539. Language                                 : French
  540. Default                                  : No
  541. Forced                                   : No
  542. Original source medium                   : Blu-ray
  543. Text #16
  544. ID                                       : 30
  545. ID in the original source medium         : 4622 (0x120E)
  546. Format                                   : PGS
  547. Muxing mode                              : zlib
  548. Codec ID                                 : S_HDMV/PGS
  549. Codec ID/Info                            : Picture based subtitle format used on BDs/HD-DVDs
  550. Duration                                 : 1 h 37 min
  551. Bit rate                                 : 950 b/s
  552. Count of elements                        : 90
  553. Stream size                              : 682 KiB (0%)
  554. Language                                 : French
  555. Default                                  : No
  556. Forced                                   : No
  557. Original source medium                   : Blu-ray
  558. Text #17
  559. ID                                       : 31
  560. ID in the original source medium         : 4623 (0x120F)
  561. Format                                   : PGS
  562. Muxing mode                              : zlib
  563. Codec ID                                 : S_HDMV/PGS
  564. Codec ID/Info                            : Picture based subtitle format used on BDs/HD-DVDs
  565. Duration                                 : 1 h 34 min
  566. Bit rate                                 : 1 367 b/s
  567. Count of elements                        : 86
  568. Stream size                              : 945 KiB (0%)
  569. Language                                 : German
  570. Default                                  : No
  571. Forced                                   : No
  572. Original source medium                   : Blu-ray
  573. Text #18
  574. ID                                       : 32
  575. ID in the original source medium         : 4624 (0x1210)
  576. Format                                   : PGS
  577. Muxing mode                              : zlib
  578. Codec ID                                 : S_HDMV/PGS
  579. Codec ID/Info                            : Picture based subtitle format used on BDs/HD-DVDs
  580. Duration                                 : 1 h 34 min
  581. Bit rate                                 : 1 317 b/s
  582. Count of elements                        : 102
  583. Stream size                              : 911 KiB (0%)
  584. Language                                 : Italian
  585. Default                                  : No
  586. Forced                                   : No
  587. Original source medium                   : Blu-ray
  588. Text #19
  589. ID                                       : 33
  590. ID in the original source medium         : 4625 (0x1211)
  591. Format                                   : PGS
  592. Muxing mode                              : zlib
  593. Codec ID                                 : S_HDMV/PGS
  594. Codec ID/Info                            : Picture based subtitle format used on BDs/HD-DVDs
  595. Duration                                 : 1 h 37 min
  596. Bit rate                                 : 1 224 b/s
  597. Count of elements                        : 102
  598. Stream size                              : 878 KiB (0%)
  599. Language                                 : Spanish
  600. Default                                  : No
  601. Forced                                   : No
  602. Original source medium                   : Blu-ray
  603. Text #20
  604. ID                                       : 34
  605. ID in the original source medium         : 4626 (0x1212)
  606. Format                                   : PGS
  607. Muxing mode                              : zlib
  608. Codec ID                                 : S_HDMV/PGS
  609. Codec ID/Info                            : Picture based subtitle format used on BDs/HD-DVDs
  610. Duration                                 : 1 h 37 min
  611. Bit rate                                 : 1 415 b/s
  612. Count of elements                        : 110
  613. Stream size                              : 1 015 KiB (0%)
  614. Language                                 : Spanish
  615. Default                                  : No
  616. Forced                                   : No
  617. Original source medium                   : Blu-ray
  618. Text #21
  619. ID                                       : 35
  620. ID in the original source medium         : 4627 (0x1213)
  621. Format                                   : PGS
  622. Muxing mode                              : zlib
  623. Codec ID                                 : S_HDMV/PGS
  624. Codec ID/Info                            : Picture based subtitle format used on BDs/HD-DVDs
  625. Duration                                 : 1 h 37 min
  626. Bit rate                                 : 1 227 b/s
  627. Count of elements                        : 100
  628. Stream size                              : 880 KiB (0%)
  629. Language                                 : Portuguese
  630. Default                                  : No
  631. Forced                                   : No
  632. Original source medium                   : Blu-ray
  633. Menu
  634. 00:00:00.000                             : Chapter 01
  635. 00:02:34.863                             : Chapter 02
  636. 00:07:25.403                             : Chapter 03
  637. 00:12:53.939                             : Chapter 04
  638. 00:19:13.569                             : Chapter 05
  639. 00:27:24.893                             : Chapter 06
  640. 00:34:47.668                             : Chapter 07
  641. 00:42:14.073                             : Chapter 08
  642. 00:47:39.606                             : Chapter 09
  643. 00:56:39.604                             : Chapter 10
  644. 01:05:49.570                             : Chapter 11
  645. 01:13:04.213                             : Chapter 12
  646. 01:19:23.675                             : Chapter 13
  647. 01:27:17.774                             : Chapter 14
  648. 01:35:45.030                             : Chapter 15
  649. 01:38:58.933                             : Chapter 16
复制代码





                                       
                                       

                                       
                                       
                                       




回复

使用道具 举报

懒得打字嘛,点击右侧快捷回复 【右侧内容,后台自定义】
您需要登录后才可以回帖 登录 | 立即加入

本版积分规则

Archiver|小黑屋| 蓝光电影网 |网站地图

Copyright © 2021 Comsenz Inc. Powered by 蓝光电影网

蓝光电影网

本站内容由用户自主分享和转载自互联网,转载目的在于传递更多信息,并不代表本网赞同其观点和对其真实性负责。

如有侵权、违反国家法律政策行为,请联系我们,我们会第一时间及时清除和处理!

举报反馈邮箱:[email protected]

快速回复 返回顶部 返回列表