找回密码

蓝光电影网

查看: 34|回复: 0

[喜剧] 星球访问 Visit.to.a.Small.Planet.1960.1080p.BluRay.REMUX.AVC.DTS-HD.MA.2.0-FGT 15.40GB

[复制链接]
蓝光币
515
发表于 2019-9-18 00:59:41 | 显示全部楼层 |阅读模式


◎译  名 星球拜候
◎片  名 Visit to a Small Planet
◎年  代 1960
◎产  地 美国
◎类  别 笑剧 / 科幻
◎语  言 英语
◎上映日期 1960-02-04
◎IMDb评分  6.1/10 from 1018 users
◎IMDb链接  http://www.imdb.com/title/tt0054446
◎豆瓣评分 0/10 from 0 users
◎豆瓣链接 https://movie.douban.com/subject/3129590/
◎片  长 85 分钟
◎导  演 Norman Taurog
◎编  剧 Gore Vidal / Edmund Beloin
◎主  演 Jerry Lewis
       Joan Blackman
       Earl Holliman
       Fred Clark
       John Williams
       Jerome Cowan

◎标  签 1960 | 美國 | 美国 | 笑剧 | Sci-Fi | JerryLewis | Comedy | BDMV
◎简  介  
  Jerry Lewis is Kreton, a childish alien who, against his teacher's will leaves his planet to visit the Earth, and lands in the backyard of a famous television journalist who doesn't believe in U.F.O's and aliens. Wanting to study humans but not able to fully understand them, Kreton makes a mess out of it, generating a lot of comic situations.
◎获奖情况  
  第33届奥斯卡金像奖(1961)
  黑白片最好艺术指导和布景(提名) 萨姆·库默 / Arthur Krams / 沃尔特·H·泰勒 / 哈尔·佩雷拉
  1. Video
  2. ID                                       : 1
  3. Format                                   : AVC
  4. Format/Info                              : Advanced Video Codec
  5. Format profile                           : [email protected]
  6. Format settings                          : CABAC / 4 Ref Frames
  7. Format settings, CABAC                   : Yes
  8. Format settings, Reference frames        : 4 frames
  9. Codec ID                                 : V_MPEG4/ISO/AVC
  10. Duration                                 : 1 h 25 min
  11. Bit rate mode                            : Variable
  12. Bit rate                                 : 24.0 Mb/s
  13. Maximum bit rate                         : 35.0 Mb/s
  14. Width                                    : 1 920 pixels
  15. Height                                   : 1 080 pixels
  16. Display aspect ratio                     : 16:9
  17. Frame rate mode                          : Constant
  18. Frame rate                               : 23.976 (24000/1001) FPS
  19. Standard                                 : NTSC
  20. Color space                              : YUV
  21. Chroma subsampling                       : 4:2:0
  22. Bit depth                                : 8 bits
  23. Scan type                                : Progressive
  24. Bits/(Pixel*Frame)                       : 0.482
  25. Stream size                              : 14.3 GiB (93%)
  26. Title                                    : Visit.to.a.Small.Planet.1960.1080p.BluRay.REMUX.AVC.DTS-HD.MA.2.0-FGT
  27. Language                                 : English
  28. Default                                  : No
  29. Forced                                   : No
  30. Color range                              : Limited
  31. Color primaries                          : BT.709
  32. Transfer characteristics                 : BT.709
  33. Matrix coefficients                      : BT.709
  34. Audio #1
  35. ID                                       : 2
  36. Format                                   : DTS XLL
  37. Format/Info                              : Digital Theater Systems
  38. Commercial name                          : DTS-HD Master Audio
  39. Codec ID                                 : A_DTS
  40. Duration                                 : 1 h 25 min
  41. Bit rate mode                            : Variable
  42. Bit rate                                 : 1 559 kb/s
  43. Channel(s)                               : 2 channels
  44. Channel layout                           : L R
  45. Sampling rate                            : 48.0 kHz
  46. Frame rate                               : 93.750 FPS (512 SPF)
  47. Bit depth                                : 16 bits
  48. Compression mode                         : Lossless
  49. Stream size                              : 952 MiB (6%)
  50. Title                                    : Visit.to.a.Small.Planet.1960.1080p.BluRay.REMUX.AVC.DTS-HD.MA.2.0-FGT
  51. Language                                 : English
  52. Default                                  : Yes
  53. Forced                                   : No
  54. Audio #2
  55. ID                                       : 3
  56. Format                                   : AC-3
  57. Format/Info                              : Audio Coding 3
  58. Commercial name                          : Dolby Digital
  59. Codec ID                                 : A_AC3
  60. Duration                                 : 1 h 25 min
  61. Bit rate mode                            : Constant
  62. Bit rate                                 : 256 kb/s
  63. Channel(s)                               : 2 channels
  64. Channel layout                           : L R
  65. Sampling rate                            : 48.0 kHz
  66. Frame rate                               : 31.250 FPS (1536 SPF)
  67. Bit depth                                : 16 bits
  68. Compression mode                         : Lossy
  69. Stream size                              : 156 MiB (1%)
  70. Title                                    : Visit.to.a.Small.Planet.1960.1080p.BluRay.REMUX.AVC.DTS-HD.MA.2.0-FGT
  71. Language                                 : English
  72. Service kind                             : Complete Main
  73. Default                                  : No
  74. Forced                                   : No
  75. Text
  76. ID                                       : 4
  77. Format                                   : PGS
  78. Muxing mode                              : zlib
  79. Codec ID                                 : S_HDMV/PGS
  80. Codec ID/Info                            : Picture based subtitle format used on BDs/HD-DVDs
  81. Duration                                 : 1 h 23 min
  82. Bit rate                                 : 37.8 kb/s
  83. Count of elements                        : 2468
  84. Stream size                              : 22.6 MiB (0%)
  85. Title                                    : English-PGS
  86. Language                                 : English
  87. Default                                  : Yes
  88. Forced                                   : No
  89. Menu
  90. 00:00:00.000                             : en:Chapter 00
  91. 00:10:53.527                             : en:Chapter 01
  92. 00:20:50.666                             : en:Chapter 02
  93. 00:33:55.366                             : en:Chapter 03
  94. 00:43:01.412                             : en:Chapter 04
  95. 00:53:46.473                             : en:Chapter 05
  96. 01:06:12.802                             : en:Chapter 06
  97. 01:12:12.828                             : en:Chapter 07
  98. 01:25:22.784                             : en:Chapter 08
复制代码






                                       
                                       

                                       
                                       
                                       




回复

使用道具 举报

懒得打字嘛,点击右侧快捷回复 【右侧内容,后台自定义】
您需要登录后才可以回帖 登录 | 立即加入

本版积分规则

Archiver|小黑屋| 蓝光电影网 |网站地图

Copyright © 2021 Comsenz Inc. Powered by 蓝光电影网

蓝光电影网

本站内容由用户自主分享和转载自互联网,转载目的在于传递更多信息,并不代表本网赞同其观点和对其真实性负责。

如有侵权、违反国家法律政策行为,请联系我们,我们会第一时间及时清除和处理!

举报反馈邮箱:[email protected]

快速回复 返回顶部 返回列表