找回密码

蓝光电影网

查看: 102|回复: 0

[动作] 地窖奇劫/90分钟惊涛械劫 Way.Down.2021.1080p.BluRay.REMUX.AVC.DTS-HD.MA.5.1-FGT 32.45GB

[复制链接]
蓝光币
511
发表于 2021-6-12 19:10:12 | 显示全部楼层 |阅读模式


◎译  名 地窖奇劫/90分钟惊涛械劫(港)/The Vault/马德里金库盗数90分钟(台)
◎片  名 Way Down
◎年  代 2021
◎产  地 西班牙
◎类  别 行动 / 犯罪
◎语  言 英语
◎上映日期 2021-01-15(中国台湾) / 2021-03-26(美国) / 2021-11-12(西班牙)
◎豆瓣评分 7.0/10 from 10716 users
◎豆瓣链接 https://movie.douban.com/subject/30456637/
◎片  长 118分钟
◎导  演 豪梅·巴拉格罗 Jaume Balagueró
◎编  剧 安德烈斯·M·科佩尔 Andrés M. Koppel / 米歇尔·加坦比 Michel Gaztambide / 罗恩·阿塞尔 Rowan Athale
◎主  演 弗莱迪·海默 Freddie Highmore
       阿斯特丽德·伯格斯-弗瑞斯贝 àstrid Bergès-Frisbey
       萨姆·赖利 Sam Riley
       利亚姆·坎宁安 Liam Cunningham
       何塞·科罗纳多 José Coronado
       路易斯·托萨尔 Luis Tosar
       埃米利奥·古铁雷斯·卡巴 Emilio Gutiérrez Caba
       阿克塞尔·施泰因 Axel Stein
       法米克·詹森 Famke Janssen
       弗兰克·费斯 Frank Feys
       维森特·希尔 Vicente Gil
       雷格·威尔森 Reg Wilson
       克雷格·史蒂文森 Craig Stevenson
       亨特·特里梅恩 Hunter Tremayne
       大卫·切弗斯 David Chevers
       贾格布·迪森塔 Jacobo Dicenta
       托马斯·德尔·伊思塔 Tomás del Estal
       胡利奥·维莱斯 Julio Vélez
       Simon Cohen
       费兰·特拉萨 Ferran Terraza
       哈维尔·加里多·加西亚 Javier Garrido García
◎标  签 犯罪 | 西班牙 | 悬疑 | 行动 | 2021 | 电影 | 弗莱迪海默 | 欧美行动
◎简  介


  西班牙银行是无与伦比的,绝对没有人能闯得进去,也不成能被人抢劫,没有蓝图、没有材料,世上没有人晓得一百多年前用来建造金库的历史性工法。这个布满刺激的应战激起了汤姆的猎奇心:这个天赋决心找出金库的奥秘,闯进银行的最深处。
  
  方针是丢失已久的宝藏,将在这家银行内保管仅仅十天。在极具魁首风采的艺术观赏家华特的率领之下,汤姆和他的团队要在短短十天内预备好此次的抢案,事成后还要拟好千载难逢的逃窜计划。计划十天,但履行这个计划却只要90分钟:这90分钟是天下杯足球决赛的时候,届时将吸引不计其数的球迷来到西班牙银行的门口。
  1. Video
  2. ID                                       : 1
  3. ID in the original source medium         : 4113 (0x1011)
  4. Format                                   : AVC
  5. Format/Info                              : Advanced Video Codec
  6. Format profile                           : [email protected]
  7. Format settings                          : CABAC / 2 Ref Frames
  8. Format settings, CABAC                   : Yes
  9. Format settings, Reference frames        : 2 frames
  10. Codec ID                                 : V_MPEG4/ISO/AVC
  11. Duration                                 : 1 h 58 min
  12. Bit rate mode                            : Variable
  13. Bit rate                                 : 34.8 Mb/s
  14. Width                                    : 1 920 pixels
  15. Height                                   : 1 080 pixels
  16. Display aspect ratio                     : 16:9
  17. Frame rate mode                          : Constant
  18. Frame rate                               : 23.976 (24000/1001/189150) FPS
  19. Color space                              : YUV
  20. Chroma subsampling                       : 4:2:0
  21. Bit depth                                : 8 bits
  22. Scan type                                : Progressive
  23. Bits/(Pixel*Frame)                       : 0.700
  24. Stream size                              : 28.8 GiB (89%)
  25. Language                                 : English
  26. Default                                  : No
  27. Forced                                   : No
  28. Original source medium                   : Blu-ray
  29. Audio #1
  30. ID                                       : 2
  31. ID in the original source medium         : 4352 (0x1100)
  32. Format                                   : DTS XLL
  33. Format/Info                              : Digital Theater Systems
  34. Commercial name                          : DTS-HD Master Audio
  35. Codec ID                                 : A_DTS
  36. Duration                                 : 1 h 58 min
  37. Bit rate mode                            : Variable
  38. Bit rate                                 : 3 773 kb/s
  39. Channel(s)                               : 6 channels
  40. Channel layout                           : C L R Ls Rs LFE
  41. Sampling rate                            : 48.0 kHz
  42. Frame rate                               : 93.750 FPS (512 SPF)
  43. Bit depth                                : 24 bits
  44. Compression mode                         : Lossless
  45. Stream size                              : 3.12 GiB (10%)
  46. Title                                    : DTS-HD MA 5.1
  47. Language                                 : English
  48. Default                                  : Yes
  49. Forced                                   : No
  50. Original source medium                   : Blu-ray
  51. Audio #2
  52. ID                                       : 3
  53. ID in the original source medium         : 4353 (0x1101)
  54. Format                                   : AC-3
  55. Format/Info                              : Audio Coding 3
  56. Commercial name                          : Dolby Digital
  57. Codec ID                                 : A_AC3
  58. Duration                                 : 1 h 58 min
  59. Bit rate mode                            : Constant
  60. Bit rate                                 : 640 kb/s
  61. Channel(s)                               : 6 channels
  62. Channel layout                           : L R C LFE Ls Rs
  63. Sampling rate                            : 48.0 kHz
  64. Frame rate                               : 31.250 FPS (1536 SPF)
  65. Compression mode                         : Lossy
  66. Stream size                              : 542 MiB (2%)
  67. Title                                    : DD 5.1
  68. Language                                 : French
  69. Service kind                             : Complete Main
  70. Default                                  : No
  71. Forced                                   : No
  72. Original source medium                   : Blu-ray
  73. Text #1
  74. ID                                       : 4
  75. Format                                   : UTF-8
  76. Codec ID                                 : S_TEXT/UTF8
  77. Codec ID/Info                            : UTF-8 Plain Text
  78. Duration                                 : 1 h 46 min
  79. Bit rate                                 : 38 b/s
  80. Count of elements                        : 994
  81. Stream size                              : 30.1 KiB (0%)
  82. Title                                    : SRT
  83. Language                                 : English
  84. Default                                  : Yes
  85. Forced                                   : No
  86. Text #2
  87. ID                                       : 5
  88. ID in the original source medium         : 4608 (0x1200)
  89. Format                                   : PGS
  90. Muxing mode                              : zlib
  91. Codec ID                                 : S_HDMV/PGS
  92. Codec ID/Info                            : Picture based subtitle format used on BDs/HD-DVDs
  93. Duration                                 : 1 h 46 min
  94. Bit rate                                 : 26.9 kb/s
  95. Count of elements                        : 2004
  96. Stream size                              : 20.5 MiB (0%)
  97. Language                                 : English
  98. Default                                  : No
  99. Forced                                   : No
  100. Original source medium                   : Blu-ray
  101. Text #3
  102. ID                                       : 6
  103. ID in the original source medium         : 4609 (0x1201)
  104. Format                                   : PGS
  105. Muxing mode                              : zlib
  106. Codec ID                                 : S_HDMV/PGS
  107. Codec ID/Info                            : Picture based subtitle format used on BDs/HD-DVDs
  108. Duration                                 : 1 h 50 min
  109. Bit rate                                 : 33.0 kb/s
  110. Count of elements                        : 2666
  111. Stream size                              : 26.0 MiB (0%)
  112. Language                                 : English
  113. Default                                  : No
  114. Forced                                   : No
  115. Original source medium                   : Blu-ray
  116. Text #4
  117. ID                                       : 7
  118. ID in the original source medium         : 4610 (0x1202)
  119. Format                                   : PGS
  120. Muxing mode                              : zlib
  121. Codec ID                                 : S_HDMV/PGS
  122. Codec ID/Info                            : Picture based subtitle format used on BDs/HD-DVDs
  123. Duration                                 : 1 h 56 min
  124. Bit rate                                 : 25.7 kb/s
  125. Count of elements                        : 2056
  126. Stream size                              : 21.4 MiB (0%)
  127. Language                                 : Spanish
  128. Default                                  : No
  129. Forced                                   : No
  130. Original source medium                   : Blu-ray
  131. Text #5
  132. ID                                       : 8
  133. ID in the original source medium         : 4611 (0x1203)
  134. Format                                   : PGS
  135. Muxing mode                              : zlib
  136. Codec ID                                 : S_HDMV/PGS
  137. Codec ID/Info                            : Picture based subtitle format used on BDs/HD-DVDs
  138. Duration                                 : 1 h 56 min
  139. Bit rate                                 : 30.8 kb/s
  140. Count of elements                        : 2552
  141. Stream size                              : 25.7 MiB (0%)
  142. Language                                 : French
  143. Default                                  : No
  144. Forced                                   : No
  145. Original source medium                   : Blu-ray
  146. Text #6
  147. ID                                       : 9
  148. ID in the original source medium         : 4611 (0x1203)
  149. Format                                   : PGS
  150. Muxing mode                              : zlib
  151. Codec ID                                 : S_HDMV/PGS
  152. Codec ID/Info                            : Picture based subtitle format used on BDs/HD-DVDs
  153. Duration                                 : 1 h 56 min
  154. Bit rate                                 : 937 b/s
  155. Count of elements                        : 72
  156. Stream size                              : 800 KiB (0%)
  157. Language                                 : French
  158. Default                                  : No
  159. Forced                                   : No
  160. Original source medium                   : Blu-ray
  161. Menu
  162. 00:00:00.000                             : Chapter 01
  163. 00:06:59.377                             : Chapter 02
  164. 00:10:44.769                             : Chapter 03
  165. 00:20:10.792                             : Chapter 04
  166. 00:25:20.101                             : Chapter 05
  167. 00:32:20.605                             : Chapter 06
  168. 00:39:02.923                             : Chapter 07
  169. 00:46:05.304                             : Chapter 08
  170. 00:52:09.835                             : Chapter 09
  171. 01:00:57.028                             : Chapter 10
  172. 01:05:49.946                             : Chapter 11
  173. 01:12:01.317                             : Chapter 12
  174. 01:19:02.487                             : Chapter 13
  175. 01:25:57.652                             : Chapter 14
  176. 01:33:18.217                             : Chapter 15
  177. 01:39:06.065                             : Chapter 16
  178. 01:45:17.853                             : Chapter 17
  179. 01:49:35.986                             : Chapter 18
复制代码







                                       
                                       

                                       
                                       
                                       




回复

使用道具 举报

懒得打字嘛,点击右侧快捷回复 【右侧内容,后台自定义】
您需要登录后才可以回帖 登录 | 立即加入

本版积分规则

Archiver|小黑屋| 蓝光电影网 |网站地图

Copyright © 2021 Comsenz Inc. Powered by 蓝光电影网

蓝光电影网

本站内容由用户自主分享和转载自互联网,转载目的在于传递更多信息,并不代表本网赞同其观点和对其真实性负责。

如有侵权、违反国家法律政策行为,请联系我们,我们会第一时间及时清除和处理!

举报反馈邮箱:[email protected]

快速回复 返回顶部 返回列表