找回密码

蓝光电影网

查看: 12|回复: 0

[动作] 匈奴大帝 Attila.The.Hun.2001.1080p.BluRay.x264.DTS-FGT 11.79GB

[复制链接]
蓝光币
519
发表于 2019-7-30 20:50:17 | 显示全部楼层 |阅读模式


◎译  名 匈奴大帝 / Attila the Hun / 匈奴王阿提拉
◎片  名 Attila
◎年  代 2001
◎产  地 美国 / 立陶宛
◎类  别 行动 / 列传 / 冒险
◎语  言 英语
◎上映日期 2001-01-30(美国)
◎IMDb评分  6.7/10 from 9646 users
◎IMDb链接  http://www.imdb.com/title/tt0259127
◎豆瓣评分 7.1/10 from 2290 users
◎豆瓣链接 https://movie.douban.com/subject/1530604/
◎片  长 177分钟
◎导  演 迪克·劳瑞 Dick Lowry
◎编  剧 Robert Cochran
◎主  演 杰拉德·巴特勒 Gerard Butler
      鲍沃斯·布斯 Powers Boothe
      西蒙娜·麦金农 Simmone Mackinnon

◎标  签 史诗 | 战争 | 历史 | 匈奴 | 美国 | 美国电影 | 古罗马 | 罗马
◎简  介  
  该剧以罗马帝国的布景展开,揭露了一支撼动罗马帝国统治的重要军事气力。公元400年,罗马帝国在天下上的统治虽日益虚弱,但还是最强大的国家。这时代一支来自东方的匈奴族军队由阿提拉率领横扫欧亚大陆,起头应战罗马帝国的霸主职位。
匈奴族的首领阿提拉年轻时英勇善战,但也素性残暴,匈奴人气力的决议性突起是自阿提拉即位成为匈奴帝国的王以后。公元433年,27岁的阿提拉与他的兄弟布来达一同从他们的叔父罗阿斯手中继续了帝国的王位。436年,阿提拉无情地谋杀了他的胞兄,单独君临帝国,而且很快同一了全部部落同盟。与他的先辈们相比,阿提拉更具有大志壮志,更富于侵犯性,而且才干极为超群。他使罗马人蒙羞,使日尔曼人丧胆,具有令西人沮丧而无法的强大气力,以致于他和他的匈奴铁骑都被称为“天主之鞭”。
那时罗马起头尚未对匈奴人落空控制,尚能以他们为雇佣军去攻打其他蛮族,主如果一些日尔曼和高卢部落。但阿提拉在娶罗马天子的姐姐的要求被拒以后,便以此为来由,起头打击西部帝国。罗马帝国年轻的天子沉迷酒色,底子不懂治国之道,皇太后不能不升引被关进死牢的原军队统帅埃迪厄斯,把拯救罗马的希望依靠在他的身上。
这位狡猾的统帅一面同阿提拉结合吞并邻邦,一面勾结邻邦想法消灭阿提拉。最初,威武阿提拉在举行婚礼后被新婚妻子毒死。征服天下的壮志瞬息间化为乌有。罗马帝国的威胁消除,刚刚委曲保住了天下霸主的职位,作为军队统帅的埃迪厄斯落空了代价,已经成熟的天子便将眼光转向了埃迪厄斯,将他杀掉。
阿提拉虽然死了,但在历史上,他还是一个极为突显的脚色。阿提拉期间的匈奴帝国事匈奴史的最初一章,也是最光辉的一章。
  1. Video
  2. ID                                       : 1
  3. Format                                   : AVC
  4. Format/Info                              : Advanced Video Codec
  5. Format profile                           : [email protected]
  6. Format settings                          : CABAC / 4 Ref Frames
  7. Format settings, CABAC                   : Yes
  8. Format settings, Reference frames        : 4 frames
  9. Codec ID                                 : V_MPEG4/ISO/AVC
  10. Duration                                 : 2 h 54 min
  11. Bit rate                                 : 8 888 kb/s
  12. Width                                    : 1 920 pixels
  13. Height                                   : 1 080 pixels
  14. Display aspect ratio                     : 16:9
  15. Frame rate mode                          : Constant
  16. Frame rate                               : 23.976 (24000/1001) FPS
  17. Color space                              : YUV
  18. Chroma subsampling                       : 4:2:0
  19. Bit depth                                : 8 bits
  20. Scan type                                : Progressive
  21. Bits/(Pixel*Frame)                       : 0.179
  22. Stream size                              : 10.6 GiB (90%)
  23. Writing library                          : x264 core 133 r2334 a3ac64b
  24. Encoding settings                        : cabac=1 / ref=4 / deblock=1:-1:-1 / analyse=0x3:0x113 / me=umh / subme=11 / psy=1 / psy_rd=1.00:0.20 / mixed_ref=1 / me_range=24 / chroma_me=1 / trellis=2 / 8x8dct=1 / cqm=0 / deadzone=21,11 / fast_pskip=0 / chroma_qp_offset=-3 / threads=12 / lookahead_threads=1 / sliced_threads=0 / nr=0 / decimate=0 / interlaced=0 / bluray_compat=0 / constrained_intra=0 / bframes=6 / b_pyramid=2 / b_adapt=2 / b_bias=0 / direct=3 / weightb=1 / open_gop=0 / weightp=2 / keyint=240 / keyint_min=23 / scenecut=40 / intra_refresh=0 / rc_lookahead=40 / rc=2pass / mbtree=0 / bitrate=8888 / ratetol=1.0 / qcomp=0.60 / qpmin=0 / qpmax=69 / qpstep=4 / cplxblur=20.0 / qblur=0.5 / vbv_maxrate=50000 / vbv_bufsize=62500 / nal_hrd=none / ip_ratio=1.40 / pb_ratio=1.30 / aq=1:1.00
  25. Default                                  : Yes
  26. Forced                                   : No
  27. Audio
  28. ID                                       : 2
  29. Format                                   : DTS
  30. Format/Info                              : Digital Theater Systems
  31. Codec ID                                 : A_DTS
  32. Duration                                 : 2 h 54 min
  33. Bit rate mode                            : Constant
  34. Bit rate                                 : 768 kb/s
  35. Channel(s)                               : 6 channels
  36. Channel layout                           : C L R Ls Rs LFE
  37. Sampling rate                            : 48.0 kHz
  38. Frame rate                               : 93.750 FPS (512 SPF)
  39. Bit depth                                : 16 bits
  40. Compression mode                         : Lossy
  41. Stream size                              : 961 MiB (8%)
  42. Language                                 : English
  43. Default                                  : Yes
  44. Forced                                   : No
  45. Text
  46. ID                                       : 3
  47. Format                                   : UTF-8
  48. Codec ID                                 : S_TEXT/UTF8
  49. Codec ID/Info                            : UTF-8 Plain Text
  50. Language                                 : English
  51. Default                                  : No
  52. Forced                                   : No
  53. Menu
  54. 00:00:00.000                             : en:00:00:00.000
  55. 00:14:04.467                             : en:00:14:04.467
  56. 00:29:21.884                             : en:00:29:21.884
  57. 00:42:07.273                             : en:00:42:07.273
  58. 00:56:45.402                             : en:00:56:45.402
  59. 01:11:57.479                             : en:01:11:57.479
  60. 01:27:56.020                             : en:01:27:56.020
  61. 01:40:10.337                             : en:01:40:10.337
  62. 01:56:29.148                             : en:01:56:29.148
  63. 02:08:33.663                             : en:02:08:33.663
  64. 02:24:29.619                             : en:02:24:29.619
  65. 02:39:29.433                             : en:02:39:29.433
复制代码






                                       
                                       

                                       
                                       
                                       




回复

使用道具 举报

懒得打字嘛,点击右侧快捷回复 【右侧内容,后台自定义】
您需要登录后才可以回帖 登录 | 立即加入

本版积分规则

Archiver|小黑屋| 蓝光电影网 |网站地图

Copyright © 2021 Comsenz Inc. Powered by 蓝光电影网

蓝光电影网

本站内容由用户自主分享和转载自互联网,转载目的在于传递更多信息,并不代表本网赞同其观点和对其真实性负责。

如有侵权、违反国家法律政策行为,请联系我们,我们会第一时间及时清除和处理!

举报反馈邮箱:[email protected]

快速回复 返回顶部 返回列表