找回密码

蓝光电影网

查看: 135|回复: 1

[动作] 特工追缉令/一触即发 Trigger.Point.2021.1080p.BluRay.REMUX.AVC.DTS-HD.MA.5.1-FGT 19.70GB

[复制链接]
蓝光币
515
发表于 2021-6-12 17:24:23 | 显示全部楼层 |阅读模式


◎译  名 奸细追缉令/一触即发/触发点
◎片  名 Trigger Point
◎年  代 2021
◎产  地 加拿大
◎类  别 行动 / 惊悚
◎语  言 英语
◎上映日期 2021-10-10(美国)
◎豆瓣评分 /10 from 0 users
◎豆瓣链接 https://movie.douban.com/subject/35387943/
◎片  长 82分钟
◎导  演 布拉德·特纳 Brad Turner
◎主  演 巴里·佩珀 Barry Pepper
       劳拉·范德沃特 Laura Vandervoort
       伊芙·哈洛 Eve Harlow
◎标  签 奸细 | 行动 | 美国 | 犯罪 | 风光好 | 美国电影 | 电影 | 加拿大
◎简  介


  A disgraced former U.S. secret agent, who suffered memory loss, is dragged back into the darkest shadows of the spy world.
  1. Video
  2. ID                                       : 1
  3. ID in the original source medium         : 4113 (0x1011)
  4. Format                                   : AVC
  5. Format/Info                              : Advanced Video Codec
  6. Format profile                           : [email protected]
  7. Format settings                          : CABAC / 4 Ref Frames
  8. Format settings, CABAC                   : Yes
  9. Format settings, Reference frames        : 4 frames
  10. Format settings, GOP                     : M=3, N=12
  11. Codec ID                                 : V_MPEG4/ISO/AVC
  12. Duration                                 : 1 h 22 min
  13. Bit rate mode                            : Variable
  14. Bit rate                                 : 28.2 Mb/s
  15. Maximum bit rate                         : 32.7 Mb/s
  16. Width                                    : 1 920 pixels
  17. Height                                   : 1 080 pixels
  18. Display aspect ratio                     : 16:9
  19. Frame rate mode                          : Constant
  20. Frame rate                               : 23.976 (24000/1001/189150) FPS
  21. Standard                                 : NTSC
  22. Color space                              : YUV
  23. Chroma subsampling                       : 4:2:0
  24. Bit depth                                : 8 bits
  25. Scan type                                : Progressive
  26. Bits/(Pixel*Frame)                       : 0.567
  27. Stream size                              : 16.2 GiB (82%)
  28. Language                                 : English
  29. Default                                  : No
  30. Forced                                   : No
  31. Color range                              : Limited
  32. Color primaries                          : BT.709
  33. Transfer characteristics                 : BT.709
  34. Matrix coefficients                      : BT.709
  35. Original source medium                   : Blu-ray
  36. Audio #1
  37. ID                                       : 2
  38. ID in the original source medium         : 4352 (0x1100)
  39. Format                                   : DTS XLL
  40. Format/Info                              : Digital Theater Systems
  41. Commercial name                          : DTS-HD Master Audio
  42. Codec ID                                 : A_DTS
  43. Duration                                 : 1 h 22 min
  44. Bit rate mode                            : Variable
  45. Bit rate                                 : 3 700 kb/s
  46. Channel(s)                               : 6 channels
  47. Channel layout                           : C L R Ls Rs LFE
  48. Sampling rate                            : 48.0 kHz
  49. Frame rate                               : 93.750 FPS (512 SPF)
  50. Bit depth                                : 24 bits
  51. Compression mode                         : Lossless
  52. Stream size                              : 2.13 GiB (11%)
  53. Title                                    : DTS-HD MA 5.1
  54. Language                                 : English
  55. Default                                  : Yes
  56. Forced                                   : No
  57. Original source medium                   : Blu-ray
  58. Audio #2
  59. ID                                       : 3
  60. ID in the original source medium         : 4353 (0x1101)
  61. Format                                   : PCM
  62. Format settings                          : Little / Signed
  63. Codec ID                                 : A_PCM/INT/LIT
  64. Duration                                 : 1 h 22 min
  65. Bit rate mode                            : Constant
  66. Bit rate                                 : 2 304 kb/s
  67. Channel(s)                               : 2 channels
  68. Sampling rate                            : 48.0 kHz
  69. Frame rate                               : 30.000 FPS (1600 SPF)
  70. Bit depth                                : 24 bits
  71. Stream size                              : 1.32 GiB (7%)
  72. Title                                    : LPCM 2.0
  73. Language                                 : English
  74. Default                                  : No
  75. Forced                                   : No
  76. Original source medium                   : Blu-ray
  77. Text #1
  78. ID                                       : 4
  79. Format                                   : UTF-8
  80. Codec ID                                 : S_TEXT/UTF8
  81. Codec ID/Info                            : UTF-8 Plain Text
  82. Duration                                 : 1 h 17 min
  83. Bit rate                                 : 40 b/s
  84. Count of elements                        : 909
  85. Stream size                              : 22.8 KiB (0%)
  86. Title                                    : SRT
  87. Language                                 : English
  88. Default                                  : Yes
  89. Forced                                   : No
  90. Text #2
  91. ID                                       : 5
  92. ID in the original source medium         : 4608 (0x1200)
  93. Format                                   : PGS
  94. Muxing mode                              : zlib
  95. Codec ID                                 : S_HDMV/PGS
  96. Codec ID/Info                            : Picture based subtitle format used on BDs/HD-DVDs
  97. Duration                                 : 1 h 21 min
  98. Bit rate                                 : 59.4 kb/s
  99. Count of elements                        : 1887
  100. Stream size                              : 34.7 MiB (0%)
  101. Language                                 : English
  102. Default                                  : No
  103. Forced                                   : No
  104. Original source medium                   : Blu-ray
  105. Menu
  106. 00:00:00.000                             : Chapter 01
  107. 00:05:52.727                             : Chapter 02
  108. 00:13:45.115                             : Chapter 03
  109. 00:20:46.787                             : Chapter 04
  110. 00:27:38.740                             : Chapter 05
  111. 00:37:21.864                             : Chapter 06
  112. 00:42:08.984                             : Chapter 07
  113. 00:47:56.164                             : Chapter 08
  114. 00:55:25.780                             : Chapter 09
  115. 01:02:33.124                             : Chapter 10
  116. 01:10:42.988                             : Chapter 11
  117. 01:18:45.011                             : Chapter 12
复制代码







                                       
                                       

                                       
                                       
                                       




回复

使用道具 举报

蓝光币
14
发表于 2021-9-28 08:44:38 | 显示全部楼层
楼主发贴辛苦了,谢谢楼主分享!
回复 支持 反对

使用道具 举报

懒得打字嘛,点击右侧快捷回复 【右侧内容,后台自定义】
您需要登录后才可以回帖 登录 | 立即加入

本版积分规则

Archiver|小黑屋| 蓝光电影网 |网站地图

Copyright © 2021 Comsenz Inc. Powered by 蓝光电影网

蓝光电影网

本站内容由用户自主分享和转载自互联网,转载目的在于传递更多信息,并不代表本网赞同其观点和对其真实性负责。

如有侵权、违反国家法律政策行为,请联系我们,我们会第一时间及时清除和处理!

举报反馈邮箱:[email protected]

快速回复 返回顶部 返回列表