找回密码

蓝光电影网

查看: 734|回复: 16

[2160p] 宝贝老板2/宝贝老板:家大业大 The.Boss.Baby.Family.Business.2021.2160p.WEB-DL.x265.10bit.SDR.DDP5.1.Atmos-NOGRP 15.70GB

[复制链接]
蓝光币
382
发表于 2021-8-21 16:33:35 | 显示全部楼层 |阅读模式


◎译  名 宝贝老板2/宝贝老板:家大业大(台)/宝贝老板2:家属企业/波士BB 2世祖(港)
◎片  名 The Boss Baby: Family Business
◎年  代 2021
◎产  地 美国
◎类  别 笑剧 / 动画
◎语  言 英语
◎上映日期 2021-07-02(美国/美国收集)
◎豆瓣评分 6.7/10 from 5232 users
◎豆瓣链接 https://movie.douban.com/subject/27056396/
◎片  长 107分钟
◎导  演 汤姆·麦格拉思 Tom McGrath
◎编  剧 玛拉·弗雷齐 Marla Frazee / 迈克尔·麦库勒斯 Michael McCullers
◎主  演 亚历克·鲍德温 Alec Baldwin
       詹姆斯·麦斯登 James Marsden
       艾米·塞德丽丝 Amy Sedaris
       阿丽亚娜·格林布拉特 Ariana Greenblatt
       杰夫·高布伦 Jeff Goldblum
       伊娃·朗格利亚 Eva Longoria
       詹姆斯·麦格拉思 James McGrath
       吉米·坎摩尔 Jimmy Kimmel
       丽莎·库卓 Lisa Kudrow
       拉斐尔·亚历杭德罗 Raphael Alejandro
       塞雷妮蒂·瑞恩·布朗 Serenity Reign Brown
       大卫·索伦 David Soren
       詹姆斯·雷恩 James Ryan
       戴维·P·史姑娘 David P. Smith
       汤姆·麦格拉思 Tom McGrath
       沃尔特·道恩 Walt Dohrn
       阿普里尔·劳伦斯 April Lawrence
       迈尔斯·克里斯托弗·巴克什 Miles Christopher Bakshi
       琳娜·泽格 Lynnanne Zager
◎标  签 动画 | 笑剧 | 美国 | 搞笑 | 小宝宝 | 兄弟 | 萌 | 蠢萌
◎简  介


  设定在首部多年以后,邓普顿兄弟蒂姆和泰德长大成人,两人关系也逐步冷淡。蒂姆已婚已育,泰德是对冲基金的首席履行官,两人将由于一个有着先辈方式和积极进取态度的新任“宝贝老板”重新联系在一路,激起出新的家属企业。
  
  蒂姆和有“超级妈妈”之称的妻子卡罗尔及异常聪明的7岁女儿塔比莎、刚诞生超级心爱的婴儿蒂娜住在郊区,塔比莎是一一切威望的教育机构的尖子生,将叔叔泰德视为偶像,想成为他那样的人,但蒂姆担忧她过分勤奋,致使没法过一个一般的童年。当蒂娜作为宝贝团体最高机密奸细的实在身份曝光,目标是为了揭开塔比莎黉舍及其奥秘开创人阿姆斯特朗博士背后的黑暗奥秘时,邓普顿兄弟将以一种意想不到的方式重聚,两人重新审阅家庭的意义,大白什么才是最重要的。
  1. Video
  2. ID                                       : 1
  3. Format                                   : HEVC
  4. Format/Info                              : High Efficiency Video Coding
  5. Format profile                           : Main [email protected]@High
  6. Codec ID                                 : V_MPEGH/ISO/HEVC
  7. Duration                                 : 1 h 47 min
  8. Bit rate                                 : 20.2 Mb/s
  9. Width                                    : 3 840 pixels
  10. Height                                   : 1 604 pixels
  11. Display aspect ratio                     : 2.40:1
  12. Frame rate mode                          : Constant
  13. Frame rate                               : 23.976 FPS
  14. Color space                              : YUV
  15. Chroma subsampling                       : 4:2:0
  16. Bit depth                                : 10 bits
  17. Bits/(Pixel*Frame)                       : 0.137
  18. Stream size                              : 15.1 GiB (96%)
  19. Language                                 : English
  20. Default                                  : Yes
  21. Forced                                   : No
  22. Color range                              : Limited
  23. Color primaries                          : BT.709
  24. Transfer characteristics                 : BT.709
  25. Matrix coefficients                      : BT.709

  26. Audio
  27. ID                                       : 2
  28. Format                                   : E-AC-3 JOC
  29. Format/Info                              : Enhanced AC-3 with Joint Object Coding
  30. Commercial name                          : Dolby Digital Plus with Dolby Atmos
  31. Codec ID                                 : A_EAC3
  32. Duration                                 : 1 h 47 min
  33. Bit rate mode                            : Constant
  34. Bit rate                                 : 768 kb/s
  35. Channel(s)                               : 6 channels
  36. Channel layout                           : L R C LFE Ls Rs
  37. Sampling rate                            : 48.0 kHz
  38. Frame rate                               : 31.250 FPS (1536 SPF)
  39. Compression mode                         : Lossy
  40. Stream size                              : 589 MiB (4%)
  41. Title                                    : English
  42. Language                                 : English
  43. Service kind                             : Complete Main
  44. Default                                  : No
  45. Forced                                   : No
  46. Complexity index                         : 16
  47. Number of dynamic objects                : 15
  48. Bed channel count                        : 1 channel
  49. Bed channel configuration                : LFE

  50. Text
  51. ID                                       : 3
  52. Format                                   : UTF-8
  53. Codec ID                                 : S_TEXT/UTF8
  54. Codec ID/Info                            : UTF-8 Plain Text
  55. Duration                                 : 1 h 47 min
  56. Bit rate                                 : 99 b/s
  57. Count of elements                        : 2781
  58. Stream size                              : 78.2 KiB (0%)
  59. Language                                 : English
  60. Default                                  : Yes
  61. Forced                                   : No
复制代码




                                       
                                       

                                       
                                       
                                       




回复

使用道具 举报

蓝光币
3
发表于 2021-8-21 18:39:43 | 显示全部楼层

楼主太厉害了!楼主,电影应该很好看我觉得蓝光电影网真是个好地方!
回复 支持 反对

使用道具 举报

蓝光币
474
发表于 2021-8-21 19:03:45 | 显示全部楼层
謝謝樓主的分享。
回复 支持 反对

使用道具 举报

蓝光币
30
发表于 2021-8-21 20:33:33 | 显示全部楼层

这东西我收了!谢谢楼主!蓝光电影网真好!
回复 支持 反对

使用道具 举报

蓝光币
1
发表于 2021-8-21 23:09:49 | 显示全部楼层
沒有第一集好看~
回复 支持 反对

使用道具 举报

蓝光币
570
发表于 2021-8-22 07:50:47 | 显示全部楼层
楼主发贴辛苦了,谢谢楼主分享!我觉得蓝光电影网是注册对了!
回复 支持 反对

使用道具 举报

蓝光币
181
发表于 2021-8-24 08:18:15 | 显示全部楼层
楼主发贴辛苦了,谢谢楼主分享!我觉得蓝光电影网是注册对了!
回复 支持 反对

使用道具 举报

蓝光币
121
发表于 2021-8-24 14:49:37 | 显示全部楼层
楼主太厉害了!楼主,电影应该很好看我觉得蓝光电影网真是个好地方!
回复 支持 反对

使用道具 举报

蓝光币
1
发表于 2021-8-24 23:11:30 | 显示全部楼层

这东西我收了!谢谢楼主!蓝光电影网真好!
回复 支持 反对

使用道具 举报

蓝光币
880
发表于 2021-8-27 19:54:57 | 显示全部楼层
动画片?
回复

使用道具 举报

懒得打字嘛,点击右侧快捷回复 【右侧内容,后台自定义】
您需要登录后才可以回帖 登录 | 立即加入

本版积分规则

Archiver|小黑屋| 蓝光电影网 |网站地图

Copyright © 2021 Comsenz Inc. Powered by 蓝光电影网

蓝光电影网

本站内容由用户自主分享和转载自互联网,转载目的在于传递更多信息,并不代表本网赞同其观点和对其真实性负责。

如有侵权、违反国家法律政策行为,请联系我们,我们会第一时间及时清除和处理!

举报反馈邮箱:[email protected]

快速回复 返回顶部 返回列表