找回密码

蓝光电影网

查看: 901|回复: 21

[UHD.HEVC] 速度与激情9/F9狂野时速 Fast.and.Furious.F9.The.Fast.Saga.2021.DC.2160p.BluRay.REMUX.HEVC.DTS-HD.MA.TrueHD.7.1.Atmos-FGT 57.05GB

[复制链接]
蓝光币
382
发表于 2021-9-5 19:29:50 | 显示全部楼层 |阅读模式


◎译  名 速度与豪情9/F9狂野时速(港)/Fast & Furious 9/FF9/狂野时速9/玩命关头9(台)/速激9
◎片  名 F9: The Fast Saga
◎年  代 2021
◎产  地 美国,泰国,加拿大
◎类  别 行动 / 犯罪
◎语  言 英语
◎上映日期 2021-05-19(韩国) / 2021-05-21(中国大陆) / 2021-06-25(美国)
◎豆瓣评分 5.3/10 from 156566 users
◎豆瓣链接 https://movie.douban.com/subject/25728006/
◎片  长 142分钟(中国大陆)
◎导  演 林诣彬 Justin Lin
◎编  剧 丹·凯西 Daniel Casey / 盖瑞·斯科特·汤普森 Gary Scott Thompson / 克里斯·摩根 Chris Morgan
◎主  演 范·迪塞尔 Vin Diesel
       约翰·塞纳 John Cena
       米歇尔·罗德里格兹 Michelle Rodriguez
       乔丹娜·布鲁斯特 Jordana Brewster
       泰瑞斯·吉布森 Tyrese Gibson
       卢达·克里斯 Ludacris
       查理兹·塞隆 Charlize Theron
       海伦·米伦 Helen Mirren
       姜成镐 Sung Kang
       娜塔莉·伊曼纽尔 Nathalie Emmanuel
       迈克尔·鲁克 Michael Rooker
       卢卡斯·布莱克 Lucas Black
       杜俊纬 Jason Tobin
       卡迪·B Cardi B
       吉姆·帕拉克 Jim Parrack
       芬恩·科尔 Finn Cole
       安珀·西耶娜 Amber Sienna
       马丁·福特 Martyn Ford
       艾拉·沃克 Ella Walker
       泽井杏奈 Anna Sawai
       图厄·埃尔斯特德·拉斯姆森 Thue Ersted Rasmussen
       米拉吉·格尔比克 Miraj Grbic
       吉米·斯达 Jimmy Star
       莱克斯·艾尔 Lex Elle
       温尼·贝内特 Vinnie Bennett
       马克·克雷尼克 Mark Krenik
       杰森·斯坦森 Jason Statham
       库尔特·拉塞尔 Kurt Russell
       谢伊·惠格姆 Shea Whigham
◎标  签 行动 | 美国 | 飙车 | 犯罪 | 2021 | 跑车 | 赛车 | 科幻
◎简  介


  “唐老迈”多姆·托莱多(范·迪塞尔 饰)与莱蒂(米歇尔·罗德里格兹 饰)和他的儿子小布莱恩,过上了阔别纷扰的安静生活。但是他们也晓得,安宁之下总潜藏着危机。这一次,为了庇护他所爱的人,唐老迈不能不直面曩昔。他和伙伴们面临的是一场足以引发天下动乱的诡计,以及一个前所未遇的一流杀手和高能车手。而这个名叫雅各布(约翰·塞纳 饰)的人,恰巧是多姆遗落在外的亲弟弟。
◎获奖情况
  第7届豆瓣电影年度榜单 ?(2020)
  最值得期待的外语电影(提名)
  
  第6届豆瓣电影年度榜单 ?(2019)
  最值得期待的外语电影(提名)
  1. Video
  2. ID                                       : 1
  3. ID in the original source medium         : 4113 (0x1011)
  4. Format                                   : HEVC
  5. Format/Info                              : High Efficiency Video Coding
  6. Format profile                           : Main [email protected]@High
  7. HDR format                               : Dolby Vision, Version 1.0, dvhe.07.06, BL+EL+RPU, Blu-ray compatible / SMPTE ST 2094 App 4, Version 1, HDR10+ Profile B compatible
  8. Codec ID                                 : V_MPEGH/ISO/HEVC
  9. Duration                                 : 2 h 29 min
  10. Bit rate                                 : 46.6 Mb/s
  11. Width                                    : 3 840 pixels
  12. Height                                   : 2 160 pixels
  13. Display aspect ratio                     : 16:9
  14. Frame rate mode                          : Constant
  15. Frame rate                               : 23.976 (24000/1001/189150) FPS
  16. Color space                              : YUV
  17. Chroma subsampling                       : 4:2:0 (Type 2)
  18. Bit depth                                : 10 bits
  19. Bits/(Pixel*Frame)                       : 0.235
  20. Stream size                              : 48.8 GiB (86%)
  21. Language                                 : English
  22. Default                                  : No
  23. Forced                                   : No
  24. Color range                              : Limited
  25. Color primaries                          : BT.2020
  26. Transfer characteristics                 : PQ
  27. Matrix coefficients                      : BT.2020 non-constant
  28. Mastering display color primaries        : Display P3
  29. Mastering display luminance              : min: 0.0001 cd/m2, max: 1000 cd/m2
  30. Maximum Content Light Level              : 1000 cd/m2
  31. Maximum Frame-Average Light Level        : 696 cd/m2
  32. Original source medium                   : Blu-ray
  33. Audio #1
  34. ID                                       : 2
  35. ID in the original source medium         : 4352 (0x1100)
  36. Format                                   : MLP FBA 16-ch
  37. Format/Info                              : Meridian Lossless Packing FBA with 16-channel presentation
  38. Commercial name                          : Dolby TrueHD with Dolby Atmos
  39. Codec ID                                 : A_TRUEHD
  40. Duration                                 : 2 h 29 min
  41. Bit rate mode                            : Variable
  42. Bit rate                                 : 3 095 kb/s
  43. Maximum bit rate                         : 4 590 kb/s
  44. Channel(s)                               : 8 channels
  45. Channel layout                           : L R C LFE Ls Rs Lb Rb
  46. Sampling rate                            : 48.0 kHz
  47. Frame rate                               : 1 200.000 FPS (40 SPF)
  48. Bit depth                                : 24 bits
  49. Compression mode                         : Lossless
  50. Stream size                              : 3.24 GiB (6%)
  51. Title                                    : TrueHD 7.1 Atmos
  52. Language                                 : English
  53. Default                                  : Yes
  54. Forced                                   : No
  55. Original source medium                   : Blu-ray
  56. Number of dynamic objects                : 11
  57. Bed channel count                        : 1 channel
  58. Bed channel configuration                : LFE
  59. Audio #2
  60. ID                                       : 3
  61. Format                                   : DTS XLL
  62. Format/Info                              : Digital Theater Systems
  63. Commercial name                          : DTS-HD Master Audio
  64. Codec ID                                 : A_DTS
  65. Duration                                 : 2 h 29 min
  66. Bit rate mode                            : Variable
  67. Bit rate                                 : 3 993 kb/s
  68. Channel(s)                               : 8 channels
  69. Channel layout                           : C L R LFE Lb Rb Lss Rss
  70. Sampling rate                            : 48.0 kHz
  71. Frame rate                               : 93.750 FPS (512 SPF)
  72. Bit depth                                : 24 bits
  73. Compression mode                         : Lossless
  74. Stream size                              : 4.18 GiB (7%)
  75. Title                                    : DTS-HD MA 7.1
  76. Language                                 : English
  77. Default                                  : No
  78. Forced                                   : No
  79. Audio #3
  80. ID                                       : 4
  81. ID in the original source medium         : 4352 (0x1100)
  82. Format                                   : AC-3
  83. Format/Info                              : Audio Coding 3
  84. Commercial name                          : Dolby Digital
  85. Codec ID                                 : A_AC3
  86. Duration                                 : 2 h 29 min
  87. Bit rate mode                            : Constant
  88. Bit rate                                 : 448 kb/s
  89. Channel(s)                               : 6 channels
  90. Channel layout                           : L R C LFE Ls Rs
  91. Sampling rate                            : 48.0 kHz
  92. Frame rate                               : 31.250 FPS (1536 SPF)
  93. Compression mode                         : Lossy
  94. Stream size                              : 480 MiB (1%)
  95. Title                                    : DD  5.1
  96. Language                                 : English
  97. Service kind                             : Complete Main
  98. Default                                  : No
  99. Forced                                   : No
  100. Original source medium                   : Blu-ray
  101. Audio #4
  102. ID                                       : 5
  103. ID in the original source medium         : 4354 (0x1102)
  104. Format                                   : AC-3
  105. Format/Info                              : Audio Coding 3
  106. Commercial name                          : Dolby Digital
  107. Codec ID                                 : A_AC3
  108. Duration                                 : 2 h 29 min
  109. Bit rate mode                            : Constant
  110. Bit rate                                 : 192 kb/s
  111. Channel(s)                               : 2 channels
  112. Channel layout                           : L R
  113. Sampling rate                            : 48.0 kHz
  114. Frame rate                               : 31.250 FPS (1536 SPF)
  115. Compression mode                         : Lossy
  116. Stream size                              : 206 MiB (0%)
  117. Title                                    : DD 2.0
  118. Language                                 : English
  119. Service kind                             : Complete Main
  120. Default                                  : No
  121. Forced                                   : No
  122. Original source medium                   : Blu-ray
  123. Text #1
  124. ID                                       : 6
  125. Format                                   : UTF-8
  126. Codec ID                                 : S_TEXT/UTF8
  127. Codec ID/Info                            : UTF-8 Plain Text
  128. Duration                                 : 2 h 22 min
  129. Bit rate                                 : 48 b/s
  130. Count of elements                        : 1676
  131. Stream size                              : 50.7 KiB (0%)
  132. Title                                    : English-SRT
  133. Language                                 : English
  134. Default                                  : Yes
  135. Forced                                   : No
  136. Text #2
  137. ID                                       : 7
  138. Format                                   : UTF-8
  139. Codec ID                                 : S_TEXT/UTF8
  140. Codec ID/Info                            : UTF-8 Plain Text
  141. Duration                                 : 2 h 23 min
  142. Bit rate                                 : 55 b/s
  143. Count of elements                        : 2039
  144. Stream size                              : 57.8 KiB (0%)
  145. Title                                    : English-SDH-SRT
  146. Language                                 : English
  147. Default                                  : No
  148. Forced                                   : No
  149. Text #3
  150. ID                                       : 8
  151. ID in the original source medium         : 4768 (0x12A0)
  152. Format                                   : PGS
  153. Muxing mode                              : zlib
  154. Codec ID                                 : S_HDMV/PGS
  155. Codec ID/Info                            : Picture based subtitle format used on BDs/HD-DVDs
  156. Duration                                 : 2 h 23 min
  157. Bit rate                                 : 36.8 kb/s
  158. Count of elements                        : 4079
  159. Stream size                              : 37.6 MiB (0%)
  160. Language                                 : English
  161. Default                                  : No
  162. Forced                                   : No
  163. Original source medium                   : Blu-ray
  164. Text #4
  165. ID                                       : 9
  166. ID in the original source medium         : 4770 (0x12A2)
  167. Format                                   : PGS
  168. Muxing mode                              : zlib
  169. Codec ID                                 : S_HDMV/PGS
  170. Codec ID/Info                            : Picture based subtitle format used on BDs/HD-DVDs
  171. Duration                                 : 2 h 20 min
  172. Bit rate                                 : 65.0 kb/s
  173. Count of elements                        : 4556
  174. Stream size                              : 65.5 MiB (0%)
  175. Language                                 : English
  176. Default                                  : No
  177. Forced                                   : No
  178. Original source medium                   : Blu-ray
  179. Menu
  180. 00:00:00.000                             : Chapter 01
  181. 00:04:47.578                             : Chapter 02
  182. 00:12:27.705                             : Chapter 03
  183. 00:21:53.270                             : Chapter 04
  184. 00:26:43.268                             : Chapter 05
  185. 00:31:43.234                             : Chapter 06
  186. 00:35:36.425                             : Chapter 07
  187. 00:45:33.689                             : Chapter 08
  188. 00:53:42.761                             : Chapter 09
  189. 01:01:12.418                             : Chapter 10
  190. 01:05:24.295                             : Chapter 11
  191. 01:13:55.472                             : Chapter 12
  192. 01:25:26.121                             : Chapter 13
  193. 01:35:27.805                             : Chapter 14
  194. 01:41:34.129                             : Chapter 15
  195. 01:47:08.380                             : Chapter 16
  196. 01:57:42.138                             : Chapter 17
  197. 02:08:02.091                             : Chapter 18
  198. 02:12:25.479                             : Chapter 19
  199. 02:17:20.941                             : Chapter 20
复制代码




                                       
                                       

                                       
                                       
                                       




速度与豪情9/F9狂野时速 Fast.and.Furious.F9.The.Fast.Saga.2021.DC.2160p.BluRay.REMUX.HEVC.DTS-HD.MA.TrueHD.7.1.Atmos-FGT 57.05GB

Fast.and.Furious.F9.The.Fast.Saga.2021.DC.2160p.BluRay.REMUX.HEVC.DTS-HD.MA.True.torrent

72.04 KB, 下载次数: 128, 下载积分: 蓝光币 -2

回复

使用道具 举报

蓝光币
0
发表于 2021-9-5 20:37:32 | 显示全部楼层

楼主太厉害了!楼主,电影应该很好看我觉得蓝光电影网真是个好地方!
回复 支持 反对

使用道具 举报

蓝光币
1
发表于 2021-9-5 23:16:18 | 显示全部楼层
谢谢楼主分享。
回复 支持 反对

使用道具 举报

蓝光币
2932
发表于 2021-9-6 00:57:47 | 显示全部楼层

既然你诚信诚意的推荐了,那我就勉为其难的看看吧!蓝光电影网不走平凡路。
回复 支持 反对

使用道具 举报

蓝光币
181
发表于 2021-9-6 07:56:41 | 显示全部楼层

楼主太厉害了!楼主,电影应该很好看我觉得蓝光电影网真是个好地方!
回复 支持 反对

使用道具 举报

蓝光币
181
发表于 2021-9-6 08:02:45 | 显示全部楼层

楼主太厉害了!楼主,电影应该很好看我觉得蓝光电影网真是个好地方!
回复 支持 反对

使用道具 举报

蓝光币
36
发表于 2021-9-6 08:54:47 | 显示全部楼层
楼主发贴辛苦了,谢谢楼主分享!我觉得蓝光电影网是注册对了!
回复 支持 反对

使用道具 举报

蓝光币
3
发表于 2021-9-6 09:21:59 | 显示全部楼层
感谢楼主分享,双击666
回复 支持 反对

使用道具 举报

蓝光币
24
发表于 2021-9-6 12:15:36 | 显示全部楼层
谢谢楼主分享
回复 支持 反对

使用道具 举报

蓝光币
1439
发表于 2021-9-6 12:56:49 | 显示全部楼层
太好啦&萬分感謝版主的無私發佈分享%
回复 支持 反对

使用道具 举报

懒得打字嘛,点击右侧快捷回复 【右侧内容,后台自定义】
您需要登录后才可以回帖 登录 | 立即加入

本版积分规则

Archiver|小黑屋| 蓝光电影网 |网站地图

Copyright © 2021 Comsenz Inc. Powered by 蓝光电影网

蓝光电影网

本站内容由用户自主分享和转载自互联网,转载目的在于传递更多信息,并不代表本网赞同其观点和对其真实性负责。

如有侵权、违反国家法律政策行为,请联系我们,我们会第一时间及时清除和处理!

举报反馈邮箱:[email protected]

快速回复 返回顶部 返回列表