找回密码

蓝光电影网

查看: 120|回复: 1

[2160p] 来自远方 Come.From.Away.2017.2160p.ATVP.WEB-DL.DDP5.1.Atmos.DV.MP4.x265-DVSUX 18.98GB

[复制链接]
蓝光币
382
发表于 7 天前 | 显示全部楼层 |阅读模式


◎译  名 来自远方
◎片  名 Come from Away
◎年  代 2021
◎产  地 美国
◎类  别 剧情 / 笑剧 / 歌舞
◎语  言 英语
◎上映日期 2021-09-10(美国收集)
◎豆瓣评分 9.3/10 from 97 users
◎豆瓣链接 https://movie.douban.com/subject/27200859/
◎导  演 克里斯托弗·阿什利 Christopher Ashley
◎主  演 詹·科莱拉 Jenn Colella
◎标  签 音乐剧 | 2021 | 美国 | 托尼奖 | 911 | 歌舞 | 笑剧 | 实在故事改编
◎简  介


  托尼奖获奖百老汇音乐剧《来自远方》(Come from Away)将被改编成电影,The Mark Gordon Company投资制片,原作者、词曲家Irene Sankoff和David Hein将编写剧本,剧版导演克里斯托弗·阿什利也肯定执导影片。设定在9·11事务以后,38架飞机意外迫降加拿大纽芬兰与拉布拉多省的小镇Gander,7000名搭客滞留。在被迫停飞的处境下,小镇的居民热情地接待并采取了一切搭客,他们的大方善良与可骇攻击构成了鲜明的对照。文化相互碰撞,人们情感高涨,不安感改变成信赖,音乐响彻深夜,感激终极构成了久长的友谊。
  
  该音乐剧大获成功,批评极佳,获7项托尼奖提名,终极获得最好音乐剧导演奖。
  1. Video
  2. ID                                       : 1
  3. Format                                   : HEVC
  4. Format/Info                              : High Efficiency Video Coding
  5. Format profile                           : Main [email protected]@High
  6. HDR format                               : Dolby Vision, Version 1.0, dvhe.05.06, BL+RPU
  7. Codec ID                                 : dvhe
  8. Codec ID/Info                            : High Efficiency Video Coding with Dolby Vision
  9. Duration                                 : 1 h 46 min
  10. Bit rate                                 : 24.6 Mb/s
  11. Width                                    : 3 840 pixels
  12. Height                                   : 1 920 pixels
  13. Display aspect ratio                     : 2.000
  14. Frame rate mode                          : Constant
  15. Frame rate                               : 23.976 (24000/1001/189150) FPS
  16. Color space                              : YUV
  17. Chroma subsampling                       : 4:2:0
  18. Bit depth                                : 10 bits
  19. Bits/(Pixel*Frame)                       : 0.139
  20. Stream size                              : 18.4 GiB (97%)
  21. Default                                  : Yes
  22. Alternate group                          : 1
  23. Encoded date                             : UTC 2021-09-10 05:41:03
  24. Tagged date                              : UTC 2021-09-10 05:43:11
  25. Codec configuration box                  : hvcC+dvcC

  26. Audio
  27. ID                                       : 2
  28. Format                                   : E-AC-3 JOC
  29. Format/Info                              : Enhanced AC-3 with Joint Object Coding
  30. Commercial name                          : Dolby Digital Plus with Dolby Atmos
  31. Codec ID                                 : ec-3
  32. Duration                                 : 1 h 46 min
  33. Bit rate mode                            : Constant
  34. Bit rate                                 : 768 kb/s
  35. Maximum bit rate                         : 811 kb/s
  36. Channel(s)                               : 6 channels
  37. Channel layout                           : L R C LFE Ls Rs
  38. Sampling rate                            : 48.0 kHz
  39. Frame rate                               : 31.250 FPS (1536 SPF)
  40. Compression mode                         : Lossy
  41. Stream size                              : 588 MiB (3%)
  42. Title                                    : English
  43. Language                                 : English
  44. Service kind                             : Complete Main
  45. Default                                  : Yes
  46. Alternate group                          : 1
  47. Tagged date                              : UTC 2021-09-10 05:43:11
  48. Complexity index                         : Not present / 16
  49. Number of dynamic objects                : 15
  50. Bed channel count                        : 1 channel
  51. Bed channel configuration                : LFE

  52. Text #1
  53. ID                                       : 3
  54. Format                                   : Timed Text
  55. Codec ID                                 : tx3g
  56. Duration                                 : 1 h 44 min
  57. Bit rate mode                            : Variable
  58. Bit rate                                 : 112 b/s
  59. Stream size                              : 86.1 KiB (0%)
  60. Title                                    : English
  61. Language                                 : English
  62. Forced                                   : No
  63. Encoded date                             : UTC 2021-09-10 05:42:58
  64. Tagged date                              : UTC 2021-09-10 05:43:11

  65. Text #2
  66. ID                                       : 4
  67. Format                                   : Timed Text
  68. Codec ID                                 : tx3g
  69. Duration                                 : 1 h 46 min
  70. Bit rate mode                            : Variable
  71. Bit rate                                 : 153 b/s
  72. Stream size                              : 120 KiB (0%)
  73. Title                                    : Arabic
  74. Language                                 : Arabic
  75. Forced                                   : No
  76. Encoded date                             : UTC 2021-09-10 05:42:58
  77. Tagged date                              : UTC 2021-09-10 05:43:11

  78. Text #3
  79. ID                                       : 5
  80. Format                                   : Timed Text
  81. Codec ID                                 : tx3g
  82. Duration                                 : 1 h 46 min
  83. Bit rate mode                            : Variable
  84. Bit rate                                 : 159 b/s
  85. Stream size                              : 125 KiB (0%)
  86. Title                                    : Bulgarian
  87. Language                                 : Bulgarian
  88. Forced                                   : No
  89. Encoded date                             : UTC 2021-09-10 05:42:58
  90. Tagged date                              : UTC 2021-09-10 05:43:11

  91. Text #4
  92. ID                                       : 6
  93. Format                                   : Timed Text
  94. Codec ID                                 : tx3g
  95. Duration                                 : 1 h 46 min
  96. Bit rate mode                            : Variable
  97. Bit rate                                 : 99 b/s
  98. Stream size                              : 77.5 KiB (0%)
  99. Title                                    : Chinese-Cantonese
  100. Language                                 : Chinese
  101. Forced                                   : No
  102. Encoded date                             : UTC 2021-09-10 05:42:58
  103. Tagged date                              : UTC 2021-09-10 05:43:11

  104. Text #5
  105. ID                                       : 7
  106. Format                                   : Timed Text
  107. Codec ID                                 : tx3g
  108. Duration                                 : 1 h 46 min
  109. Bit rate mode                            : Variable
  110. Bit rate                                 : 101 b/s
  111. Stream size                              : 78.7 KiB (0%)
  112. Title                                    : Chinese-Simplified
  113. Language                                 : Chinese
  114. Forced                                   : No
  115. Encoded date                             : UTC 2021-09-10 05:42:59
  116. Tagged date                              : UTC 2021-09-10 05:43:11

  117. Text #6
  118. ID                                       : 8
  119. Format                                   : Timed Text
  120. Codec ID                                 : tx3g
  121. Duration                                 : 1 h 46 min
  122. Bit rate mode                            : Variable
  123. Bit rate                                 : 98 b/s
  124. Stream size                              : 77.1 KiB (0%)
  125. Title                                    : Chinese-Traditional
  126. Language                                 : Chinese
  127. Forced                                   : No
  128. Encoded date                             : UTC 2021-09-10 05:42:59
  129. Tagged date                              : UTC 2021-09-10 05:43:11

  130. Text #7
  131. ID                                       : 9
  132. Format                                   : Timed Text
  133. Codec ID                                 : tx3g
  134. Duration                                 : 1 h 46 min
  135. Bit rate mode                            : Variable
  136. Bit rate                                 : 99 b/s
  137. Stream size                              : 77.2 KiB (0%)
  138. Title                                    : Czech
  139. Language                                 : Czech
  140. Forced                                   : No
  141. Encoded date                             : UTC 2021-09-10 05:42:59
  142. Tagged date                              : UTC 2021-09-10 05:43:11

  143. Text #8
  144. ID                                       : 10
  145. Format                                   : Timed Text
  146. Codec ID                                 : tx3g
  147. Duration                                 : 1 h 46 min
  148. Bit rate mode                            : Variable
  149. Bit rate                                 : 103 b/s
  150. Stream size                              : 80.7 KiB (0%)
  151. Title                                    : Danish
  152. Language                                 : Danish
  153. Forced                                   : No
  154. Encoded date                             : UTC 2021-09-10 05:42:59
  155. Tagged date                              : UTC 2021-09-10 05:43:11

  156. Text #9
  157. ID                                       : 11
  158. Format                                   : Timed Text
  159. Codec ID                                 : tx3g
  160. Duration                                 : 1 h 46 min
  161. Bit rate mode                            : Variable
  162. Bit rate                                 : 99 b/s
  163. Stream size                              : 77.9 KiB (0%)
  164. Title                                    : Dutch
  165. Language                                 : Dutch
  166. Forced                                   : No
  167. Encoded date                             : UTC 2021-09-10 05:43:01
  168. Tagged date                              : UTC 2021-09-10 05:43:11

  169. Text #10
  170. ID                                       : 12
  171. Format                                   : Timed Text
  172. Codec ID                                 : tx3g
  173. Duration                                 : 1 h 46 min
  174. Bit rate mode                            : Variable
  175. Bit rate                                 : 98 b/s
  176. Stream size                              : 76.9 KiB (0%)
  177. Title                                    : Estonian
  178. Language                                 : Estonian
  179. Forced                                   : No
  180. Encoded date                             : UTC 2021-09-10 05:43:01
  181. Tagged date                              : UTC 2021-09-10 05:43:11

  182. Text #11
  183. ID                                       : 13
  184. Format                                   : Timed Text
  185. Codec ID                                 : tx3g
  186. Duration                                 : 1 h 46 min
  187. Bit rate mode                            : Variable
  188. Bit rate                                 : 103 b/s
  189. Stream size                              : 80.3 KiB (0%)
  190. Title                                    : Finnish
  191. Language                                 : Finnish
  192. Forced                                   : No
  193. Encoded date                             : UTC 2021-09-10 05:43:02
  194. Tagged date                              : UTC 2021-09-10 05:43:11

  195. Text #12
  196. ID                                       : 14
  197. Format                                   : Timed Text
  198. Codec ID                                 : tx3g
  199. Duration                                 : 1 h 46 min
  200. Bit rate mode                            : Variable
  201. Bit rate                                 : 105 b/s
  202. Stream size                              : 82.4 KiB (0%)
  203. Title                                    : French
  204. Language                                 : French
  205. Forced                                   : No
  206. Encoded date                             : UTC 2021-09-10 05:43:02
  207. Tagged date                              : UTC 2021-09-10 05:43:11

  208. Text #13
  209. ID                                       : 15
  210. Format                                   : Timed Text
  211. Codec ID                                 : tx3g
  212. Duration                                 : 1 h 46 min
  213. Bit rate mode                            : Variable
  214. Bit rate                                 : 105 b/s
  215. Stream size                              : 82.5 KiB (0%)
  216. Title                                    : French
  217. Language                                 : French
  218. Forced                                   : No
  219. Encoded date                             : UTC 2021-09-10 05:43:02
  220. Tagged date                              : UTC 2021-09-10 05:43:11

  221. Text #14
  222. ID                                       : 16
  223. Format                                   : Timed Text
  224. Codec ID                                 : tx3g
  225. Duration                                 : 1 h 46 min
  226. Bit rate mode                            : Variable
  227. Bit rate                                 : 102 b/s
  228. Stream size                              : 79.9 KiB (0%)
  229. Title                                    : German
  230. Language                                 : German
  231. Forced                                   : No
  232. Encoded date                             : UTC 2021-09-10 05:43:02
  233. Tagged date                              : UTC 2021-09-10 05:43:11

  234. Text #15
  235. ID                                       : 17
  236. Format                                   : Timed Text
  237. Codec ID                                 : tx3g
  238. Duration                                 : 1 h 46 min
  239. Bit rate mode                            : Variable
  240. Bit rate                                 : 169 b/s
  241. Stream size                              : 132 KiB (0%)
  242. Title                                    : Greek
  243. Language                                 : Greek
  244. Forced                                   : No
  245. Encoded date                             : UTC 2021-09-10 05:43:03
  246. Tagged date                              : UTC 2021-09-10 05:43:11

  247. Text #16
  248. ID                                       : 18
  249. Format                                   : Timed Text
  250. Codec ID                                 : tx3g
  251. Duration                                 : 1 h 46 min
  252. Bit rate mode                            : Variable
  253. Bit rate                                 : 142 b/s
  254. Stream size                              : 111 KiB (0%)
  255. Title                                    : Hebrew
  256. Language                                 : Hebrew
  257. Forced                                   : No
  258. Encoded date                             : UTC 2021-09-10 05:43:03
  259. Tagged date                              : UTC 2021-09-10 05:43:11

  260. Text #17
  261. ID                                       : 19
  262. Format                                   : Timed Text
  263. Codec ID                                 : tx3g
  264. Duration                                 : 1 h 46 min
  265. Bit rate mode                            : Variable
  266. Bit rate                                 : 268 b/s
  267. Stream size                              : 210 KiB (0%)
  268. Title                                    : Hindi
  269. Language                                 : Hindi
  270. Forced                                   : No
  271. Encoded date                             : UTC 2021-09-10 05:43:03
  272. Tagged date                              : UTC 2021-09-10 05:43:11

  273. Text #18
  274. ID                                       : 20
  275. Format                                   : Timed Text
  276. Codec ID                                 : tx3g
  277. Duration                                 : 1 h 46 min
  278. Bit rate mode                            : Variable
  279. Bit rate                                 : 104 b/s
  280. Stream size                              : 81.1 KiB (0%)
  281. Title                                    : Hungarian
  282. Language                                 : Hungarian
  283. Forced                                   : No
  284. Encoded date                             : UTC 2021-09-10 05:43:04
  285. Tagged date                              : UTC 2021-09-10 05:43:11

  286. Text #19
  287. ID                                       : 21
  288. Format                                   : Timed Text
  289. Codec ID                                 : tx3g
  290. Duration                                 : 1 h 46 min
  291. Bit rate mode                            : Variable
  292. Bit rate                                 : 107 b/s
  293. Stream size                              : 84.0 KiB (0%)
  294. Title                                    : Indonesian
  295. Language                                 : Indonesian
  296. Forced                                   : No
  297. Encoded date                             : UTC 2021-09-10 05:43:05
  298. Tagged date                              : UTC 2021-09-10 05:43:11

  299. Text #20
  300. ID                                       : 22
  301. Format                                   : Timed Text
  302. Codec ID                                 : tx3g
  303. Duration                                 : 1 h 46 min
  304. Bit rate mode                            : Variable
  305. Bit rate                                 : 108 b/s
  306. Stream size                              : 84.9 KiB (0%)
  307. Title                                    : Italian
  308. Language                                 : Italian
  309. Forced                                   : No
  310. Encoded date                             : UTC 2021-09-10 05:43:05
  311. Tagged date                              : UTC 2021-09-10 05:43:11

  312. Text #21
  313. ID                                       : 23
  314. Format                                   : Timed Text
  315. Codec ID                                 : tx3g
  316. Duration                                 : 1 h 46 min
  317. Bit rate mode                            : Variable
  318. Bit rate                                 : 85 b/s
  319. Stream size                              : 66.2 KiB (0%)
  320. Title                                    : Japanese
  321. Language                                 : Japanese
  322. Forced                                   : No
  323. Encoded date                             : UTC 2021-09-10 05:43:05
  324. Tagged date                              : UTC 2021-09-10 05:43:11

  325. Text #22
  326. ID                                       : 24
  327. Format                                   : Timed Text
  328. Codec ID                                 : tx3g
  329. Duration                                 : 1 h 46 min
  330. Bit rate mode                            : Variable
  331. Bit rate                                 : 124 b/s
  332. Stream size                              : 97.2 KiB (0%)
  333. Title                                    : Korean
  334. Language                                 : Korean
  335. Forced                                   : No
  336. Encoded date                             : UTC 2021-09-10 05:43:05
  337. Tagged date                              : UTC 2021-09-10 05:43:11

  338. Text #23
  339. ID                                       : 25
  340. Format                                   : Timed Text
  341. Codec ID                                 : tx3g
  342. Duration                                 : 1 h 46 min
  343. Bit rate mode                            : Variable
  344. Bit rate                                 : 107 b/s
  345. Stream size                              : 84.1 KiB (0%)
  346. Title                                    : Latvian
  347. Language                                 : Latvian
  348. Forced                                   : No
  349. Encoded date                             : UTC 2021-09-10 05:43:05
  350. Tagged date                              : UTC 2021-09-10 05:43:11

  351. Text #24
  352. ID                                       : 26
  353. Format                                   : Timed Text
  354. Codec ID                                 : tx3g
  355. Duration                                 : 1 h 46 min
  356. Bit rate mode                            : Variable
  357. Bit rate                                 : 106 b/s
  358. Stream size                              : 82.9 KiB (0%)
  359. Title                                    : Lithuanian
  360. Language                                 : Lithuanian
  361. Forced                                   : No
  362. Encoded date                             : UTC 2021-09-10 05:43:06
  363. Tagged date                              : UTC 2021-09-10 05:43:11

  364. Text #25
  365. ID                                       : 27
  366. Format                                   : Timed Text
  367. Codec ID                                 : tx3g
  368. Duration                                 : 1 h 46 min
  369. Bit rate mode                            : Variable
  370. Bit rate                                 : 112 b/s
  371. Stream size                              : 87.4 KiB (0%)
  372. Title                                    : Malay
  373. Language                                 : Malay
  374. Forced                                   : No
  375. Encoded date                             : UTC 2021-09-10 05:43:06
  376. Tagged date                              : UTC 2021-09-10 05:43:11

  377. Text #26
  378. ID                                       : 28
  379. Format                                   : Timed Text
  380. Codec ID                                 : tx3g
  381. Duration                                 : 1 h 46 min
  382. Bit rate mode                            : Variable
  383. Bit rate                                 : 103 b/s
  384. Stream size                              : 80.4 KiB (0%)
  385. Title                                    : Norwegian
  386. Language                                 : Norwegian
  387. Forced                                   : No
  388. Encoded date                             : UTC 2021-09-10 05:43:06
  389. Tagged date                              : UTC 2021-09-10 05:43:11

  390. Text #27
  391. ID                                       : 29
  392. Format                                   : Timed Text
  393. Codec ID                                 : tx3g
  394. Duration                                 : 1 h 46 min
  395. Bit rate mode                            : Variable
  396. Bit rate                                 : 107 b/s
  397. Stream size                              : 83.8 KiB (0%)
  398. Title                                    : Polish
  399. Language                                 : Polish
  400. Forced                                   : No
  401. Encoded date                             : UTC 2021-09-10 05:43:06
  402. Tagged date                              : UTC 2021-09-10 05:43:11

  403. Text #28
  404. ID                                       : 30
  405. Format                                   : Timed Text
  406. Codec ID                                 : tx3g
  407. Duration                                 : 1 h 46 min
  408. Bit rate mode                            : Variable
  409. Bit rate                                 : 108 b/s
  410. Stream size                              : 84.6 KiB (0%)
  411. Title                                    : Portuguese
  412. Language                                 : Portuguese
  413. Forced                                   : No
  414. Encoded date                             : UTC 2021-09-10 05:43:07
  415. Tagged date                              : UTC 2021-09-10 05:43:11

  416. Text #29
  417. ID                                       : 31
  418. Format                                   : Timed Text
  419. Codec ID                                 : tx3g
  420. Duration                                 : 1 h 46 min
  421. Bit rate mode                            : Variable
  422. Bit rate                                 : 102 b/s
  423. Stream size                              : 80.2 KiB (0%)
  424. Title                                    : Portuguese
  425. Language                                 : Portuguese
  426. Forced                                   : No
  427. Encoded date                             : UTC 2021-09-10 05:43:07
  428. Tagged date                              : UTC 2021-09-10 05:43:11

  429. Text #30
  430. ID                                       : 32
  431. Format                                   : Timed Text
  432. Codec ID                                 : tx3g
  433. Duration                                 : 1 h 46 min
  434. Bit rate mode                            : Variable
  435. Bit rate                                 : 168 b/s
  436. Stream size                              : 131 KiB (0%)
  437. Title                                    : Russian
  438. Language                                 : Russian
  439. Forced                                   : No
  440. Encoded date                             : UTC 2021-09-10 05:43:07
  441. Tagged date                              : UTC 2021-09-10 05:43:11

  442. Text #31
  443. ID                                       : 33
  444. Format                                   : Timed Text
  445. Codec ID                                 : tx3g
  446. Duration                                 : 1 h 46 min
  447. Bit rate mode                            : Variable
  448. Bit rate                                 : 103 b/s
  449. Stream size                              : 80.4 KiB (0%)
  450. Title                                    : Slovak
  451. Language                                 : Slovak
  452. Forced                                   : No
  453. Encoded date                             : UTC 2021-09-10 05:43:07
  454. Tagged date                              : UTC 2021-09-10 05:43:11

  455. Text #32
  456. ID                                       : 34
  457. Format                                   : Timed Text
  458. Codec ID                                 : tx3g
  459. Duration                                 : 1 h 46 min
  460. Bit rate mode                            : Variable
  461. Bit rate                                 : 91 b/s
  462. Stream size                              : 71.3 KiB (0%)
  463. Title                                    : Slovenian
  464. Language                                 : Slovenian
  465. Forced                                   : No
  466. Encoded date                             : UTC 2021-09-10 05:43:08
  467. Tagged date                              : UTC 2021-09-10 05:43:11

  468. Text #33
  469. ID                                       : 35
  470. Format                                   : Timed Text
  471. Codec ID                                 : tx3g
  472. Duration                                 : 1 h 46 min
  473. Bit rate mode                            : Variable
  474. Bit rate                                 : 103 b/s
  475. Stream size                              : 80.8 KiB (0%)
  476. Title                                    : Spanish
  477. Language                                 : Spanish
  478. Forced                                   : No
  479. Encoded date                             : UTC 2021-09-10 05:43:08
  480. Tagged date                              : UTC 2021-09-10 05:43:11

  481. Text #34
  482. ID                                       : 36
  483. Format                                   : Timed Text
  484. Codec ID                                 : tx3g
  485. Duration                                 : 1 h 46 min
  486. Bit rate mode                            : Variable
  487. Bit rate                                 : 104 b/s
  488. Stream size                              : 81.6 KiB (0%)
  489. Title                                    : Spanish-EU
  490. Language                                 : Spanish
  491. Forced                                   : No
  492. Encoded date                             : UTC 2021-09-10 05:43:08
  493. Tagged date                              : UTC 2021-09-10 05:43:11

  494. Text #35
  495. ID                                       : 37
  496. Format                                   : Timed Text
  497. Codec ID                                 : tx3g
  498. Duration                                 : 1 h 46 min
  499. Bit rate mode                            : Variable
  500. Bit rate                                 : 111 b/s
  501. Stream size                              : 86.7 KiB (0%)
  502. Title                                    : Swedish
  503. Language                                 : Swedish
  504. Forced                                   : No
  505. Encoded date                             : UTC 2021-09-10 05:43:08
  506. Tagged date                              : UTC 2021-09-10 05:43:11

  507. Text #36
  508. ID                                       : 38
  509. Format                                   : Timed Text
  510. Codec ID                                 : tx3g
  511. Duration                                 : 1 h 46 min
  512. Bit rate mode                            : Variable
  513. Bit rate                                 : 329 b/s
  514. Stream size                              : 257 KiB (0%)
  515. Title                                    : Tamil
  516. Language                                 : Tamil
  517. Forced                                   : No
  518. Encoded date                             : UTC 2021-09-10 05:43:10
  519. Tagged date                              : UTC 2021-09-10 05:43:11

  520. Text #37
  521. ID                                       : 39
  522. Format                                   : Timed Text
  523. Codec ID                                 : tx3g
  524. Duration                                 : 1 h 46 min
  525. Bit rate mode                            : Variable
  526. Bit rate                                 : 284 b/s
  527. Stream size                              : 222 KiB (0%)
  528. Title                                    : Telugu
  529. Language                                 : Telugu
  530. Forced                                   : No
  531. Encoded date                             : UTC 2021-09-10 05:43:11
  532. Tagged date                              : UTC 2021-09-10 05:43:11

  533. Text #38
  534. ID                                       : 40
  535. Format                                   : Timed Text
  536. Codec ID                                 : tx3g
  537. Duration                                 : 1 h 46 min
  538. Bit rate mode                            : Variable
  539. Bit rate                                 : 256 b/s
  540. Stream size                              : 201 KiB (0%)
  541. Title                                    : Thai
  542. Language                                 : Thai
  543. Forced                                   : No
  544. Encoded date                             : UTC 2021-09-10 05:43:11
  545. Tagged date                              : UTC 2021-09-10 05:43:11

  546. Text #39
  547. ID                                       : 41
  548. Format                                   : Timed Text
  549. Codec ID                                 : tx3g
  550. Duration                                 : 1 h 46 min
  551. Bit rate mode                            : Variable
  552. Bit rate                                 : 111 b/s
  553. Stream size                              : 87.3 KiB (0%)
  554. Title                                    : Turkish
  555. Language                                 : Turkish
  556. Forced                                   : No
  557. Encoded date                             : UTC 2021-09-10 05:43:11
  558. Tagged date                              : UTC 2021-09-10 05:43:11

  559. Text #40
  560. ID                                       : 42
  561. Format                                   : Timed Text
  562. Codec ID                                 : tx3g
  563. Duration                                 : 1 h 46 min
  564. Bit rate mode                            : Variable
  565. Bit rate                                 : 155 b/s
  566. Stream size                              : 121 KiB (0%)
  567. Title                                    : Ukrainian
  568. Language                                 : Ukrainian
  569. Forced                                   : No
  570. Encoded date                             : UTC 2021-09-10 05:43:11
  571. Tagged date                              : UTC 2021-09-10 05:43:11

  572. Text #41
  573. ID                                       : 43
  574. Format                                   : Timed Text
  575. Codec ID                                 : tx3g
  576. Duration                                 : 1 h 46 min
  577. Bit rate mode                            : Variable
  578. Bit rate                                 : 138 b/s
  579. Stream size                              : 108 KiB (0%)
  580. Title                                    : Vietnamese
  581. Language                                 : Vietnamese
  582. Forced                                   : No
  583. Encoded date                             : UTC 2021-09-10 05:43:11
  584. Tagged date                              : UTC 2021-09-10 05:43:11
复制代码




                                       
                                       

                                       
                                       
                                       




回复

使用道具 举报

蓝光币
511
发表于 6 天前 | 显示全部楼层
谢谢店家的辛苦劳动,都是好看的电影。希望能够把以前经典的电影能够给予,比如【最后的武士】
回复 支持 反对

使用道具 举报

懒得打字嘛,点击右侧快捷回复 【右侧内容,后台自定义】
您需要登录后才可以回帖 登录 | 立即加入

本版积分规则

Archiver|小黑屋| 蓝光电影网 |网站地图

Copyright © 2021 Comsenz Inc. Powered by 蓝光电影网

蓝光电影网

本站内容由用户自主分享和转载自互联网,转载目的在于传递更多信息,并不代表本网赞同其观点和对其真实性负责。

如有侵权、违反国家法律政策行为,请联系我们,我们会第一时间及时清除和处理!

举报反馈邮箱:[email protected]

快速回复 返回顶部 返回列表