找回密码

蓝光电影网

查看: 401|回复: 5

[2160p] 致命感应 Malignant.2021.2160p.HMAX.WEB-DL.x265.10bit.HDR.DD5.1-CM 14.23GB

[复制链接]
蓝光币
382
发表于 7 天前 | 显示全部楼层 |阅读模式


◎译  名 致命感应/Malignant Man/恶性/恶毒/恶煞(港)/疾厄(台)/肿瘤/肿瘤侠
◎片  名 Malignant
◎年  代 2021
◎产  地 美国,中国大陆
◎类  别 可骇
◎语  言 英语
◎上映日期 2021-09-01(法国) / 2021-09-10(美国)
◎豆瓣评分 /10 from 0 users
◎豆瓣链接 https://movie.douban.com/subject/25909236/
◎片  长 111分钟
◎导  演 温子仁 James Wan
◎编  剧 阿克拉·库珀 Akela Cooper / 温子仁 James Wan / 英格丽·比苏 Ingrid Bisu / 扎克·奥尔维奇 Zak Olkewicz / J·T·佩蒂 J.T. Petty
◎主  演 安娜贝拉·沃丽丝 Annabelle Wallis
       麦蒂·哈森 Maddie Hasson
       吴宇卫 George Young
       米歇尔·沃特 Michole White
       麦肯娜·格瑞丝 Mckenna Grace
       珍·路易莎·凯利 Jean Louisa Kelly
       苏珊娜·汤姆森 Susanna Thompson
       杰克·阿贝尔 Jake Abel
       杰奎琳·麦根斯 Jacqueline McKenzie
       克里斯蒂安·克莱门松 Christian Clemenson
       梅塞德斯·科隆 Mercedes Colon
       英格丽·比苏 Ingrid Bisu
       乔恩·李·布罗迪 Jon Lee Brody
       保拉·马绍尔 Paula Marshall
       佐伊·贝尔 Zoe Bell
       娜塔莉·萨福兰 Natalia Safran
       迈克·门德兹 Mike Mendez
       雷·蔡斯 Ray Chase
       帕翠西娅·维拉奎兹 Patricia Velasquez
       麦迪逊·沃尔夫 Madison Wolfe
       安迪·比恩 Andy Bean
       帕特里克·考克斯 Patrick Cox
       蕾妮·戴蒙德 Renee Diamond
       玛丽娜·马泽帕 Marina Mazepa
       基诺·蒙特斯诺斯 Gino Montesinos
◎标  签 温子仁 | 可骇 | 惊悚 | 悬疑 | 美国 | 2021 | 科幻 | 欧美
◎简  介


  麦迪森(安娜贝拉·沃丽丝 Annabelle Wallis 饰)在梦中不竭看到可骇谋杀案现场的幻象,而这些幻象现实上是实在发生过的凶案,她决议挖掘真相和自己的曩昔,却发现这一切与一位名叫“盖博瑞”的魔鬼有关。
  1. Video
  2. ID                                       : 1
  3. Format                                   : HEVC
  4. Format/Info                              : High Efficiency Video Coding
  5. Format profile                           : Main [email protected]@Main
  6. HDR format                               : SMPTE ST 2086, HDR10 compatible
  7. Codec ID                                 : V_MPEGH/ISO/HEVC
  8. Duration                                 : 1 h 51 min
  9. Bit rate                                 : 17.9 Mb/s
  10. Width                                    : 3 840 pixels
  11. Height                                   : 2 160 pixels
  12. Display aspect ratio                     : 16:9
  13. Frame rate mode                          : Constant
  14. Frame rate                               : 23.976 (24000/1001/189150) FPS
  15. Color space                              : YUV
  16. Chroma subsampling                       : 4:2:0
  17. Bit depth                                : 10 bits
  18. Bits/(Pixel*Frame)                       : 0.090
  19. Stream size                              : 13.9 GiB (98%)
  20. Writing library                          : x265 3.4hy:[Linux][GCC 7.5.0][64 bit] 10bit
  21. Encoding settings                        : cpuid=1111039 / frame-threads=1 / wpp / no-pmode / no-pme / no-psnr / no-ssim / log-level=2 / input-csp=1 / input-res=3840x2160 / interlace=0 / total-frames=0 / level-idc=0 / high-tier=1 / uhd-bd=0 / ref=4 / no-allow-non-conformance / repeat-headers / annexb / no-aud / no-hrd / info / hash=0 / no-temporal-layers / no-open-gop / min-keyint=96 / keyint=96 / gop-lookahead=0 / bframes=3 / b-adapt=2 / b-pyramid / bframe-bias=0 / rc-lookahead=25 / lookahead-slices=4 / scenecut=40 / hist-scenecut=0 / radl=0 / no-splice / no-intra-refresh / ctu=64 / min-cu-size=8 / rect / no-amp / max-tu-size=32 / tu-inter-depth=1 / tu-intra-depth=1 / limit-tu=0 / rdoq-level=2 / dynamic-rd=0.00 / no-ssim-rd / signhide / no-tskip / nr-intra=0 / nr-inter=0 / no-constrained-intra / strong-intra-smoothing / max-merge=3 / limit-refs=3 / limit-modes / me=3 / subme=3 / merange=57 / temporal-mvp / no-frame-dup / no-hme / weightp / no-weightb / no-analyze-src-pics / deblock=0:0 / sao / no-sao-non-deblock / rd=4 / selective-sao=4 / no-early-skip / rskip / no-fast-intra / no-tskip-fast / no-cu-lossless / no-b-intra / no-splitrd-skip / rdpenalty=0 / psy-rd=2.00 / psy-rdoq=1.00 / no-rd-refine / no-lossless / cbqpoffs=0 / crqpoffs=0 / rc=abr / bitrate=18000 / qcomp=0.60 / qpstep=4 / stats-write=0 / stats-read=2 / cplxblur=20.0 / qblur=0.5 / vbv-maxrate=24500 / vbv-bufsize=24500 / vbv-init=0.6 / vbv-end=0.6 / vbv-end-fr-adj=0.0 / ipratio=1.40 / pbratio=1.30 / aq-mode=2 / aq-strength=1.00 / cutree / zone-count=0 / no-strict-cbr / qg-size=32 / no-rc-grain / qpmax=69 / qpmin=0 / no-const-vbv / sar=0 / overscan=0 / videoformat=5 / range=0 / colorprim=9 / transfer=16 / colormatrix=9 / chromaloc=0 / display-window=0 / master-display=G(13250,34500)B(7500,3000)R(34000,16000)WP(15635,16450)L(40000000,50) / cll=1184,169 / min-luma=0 / max-luma=1023 / log2-max-poc-lsb=8 / vui-timing-info / vui-hrd-info / no-concatenation / slices=1 / no-opt-qp-pps / no-opt-ref-list-length-pps / no-multi-pass-opt-rps / scenecut-bias=0.05 / hist-threshold=0.01 / no-opt-cu-delta-qp / no-aq-motion / hdr10 / no-hdr10-opt / no-dhdr10-opt / no-idr-recovery-sei / analysis-reuse-level=0 / analysis-save-reuse-level=0 / analysis-load-reuse-level=0 / scale-factor=0 / refine-intra=0 / refine-inter=0 / refine-mv=1 / refine-ctu-distortion=0 / no-limit-sao / ctu-info=0 / no-lowpass-dct / refine-analysis-type=0 / copy-pic=1 / max-ausize-factor=1.0 / no-dynamic-refine / no-single-sei / no-hevc-aq / no-svt / no-field / qp-adaptation-range=1.00 / no-scenecut-aware-qpconformance-window-offsets / right=0 / bottom=0 / decoder-max-rate=0
  22. Default                                  : Yes
  23. Forced                                   : No
  24. Color range                              : Limited
  25. Color primaries                          : BT.2020
  26. Transfer characteristics                 : PQ
  27. Matrix coefficients                      : BT.2020 non-constant
  28. Mastering display color primaries        : Display P3
  29. Mastering display luminance              : min: 0.0050 cd/m2, max: 4000 cd/m2
  30. Maximum Content Light Level              : 1184 cd/m2
  31. Maximum Frame-Average Light Level        : 169 cd/m2

  32. Audio
  33. ID                                       : 2
  34. Format                                   : AC-3
  35. Format/Info                              : Audio Coding 3
  36. Commercial name                          : Dolby Digital
  37. Codec ID                                 : A_AC3
  38. Duration                                 : 1 h 51 min
  39. Bit rate mode                            : Constant
  40. Bit rate                                 : 384 kb/s
  41. Channel(s)                               : 6 channels
  42. Channel layout                           : L R C LFE Ls Rs
  43. Sampling rate                            : 48.0 kHz
  44. Frame rate                               : 31.250 FPS (1536 SPF)
  45. Compression mode                         : Lossy
  46. Stream size                              : 306 MiB (2%)
  47. Title                                    : English
  48. Language                                 : English
  49. Service kind                             : Complete Main
  50. Default                                  : No
  51. Forced                                   : No

  52. Text #1
  53. ID                                       : 3
  54. Format                                   : UTF-8
  55. Codec ID                                 : S_TEXT/UTF8
  56. Codec ID/Info                            : UTF-8 Plain Text
  57. Duration                                 : 1 h 45 min
  58. Bit rate                                 : 33 b/s
  59. Count of elements                        : 963
  60. Stream size                              : 25.9 KiB (0%)
  61. Title                                    : English
  62. Language                                 : English
  63. Default                                  : No
  64. Forced                                   : No

  65. Text #2
  66. ID                                       : 4
  67. Format                                   : UTF-8
  68. Codec ID                                 : S_TEXT/UTF8
  69. Codec ID/Info                            : UTF-8 Plain Text
  70. Duration                                 : 1 h 47 min
  71. Bit rate                                 : 45 b/s
  72. Count of elements                        : 1397
  73. Stream size                              : 35.8 KiB (0%)
  74. Title                                    : English [SDH]
  75. Language                                 : English
  76. Default                                  : No
  77. Forced                                   : No

  78. Text #3
  79. ID                                       : 5
  80. Format                                   : UTF-8
  81. Codec ID                                 : S_TEXT/UTF8
  82. Codec ID/Info                            : UTF-8 Plain Text
  83. Duration                                 : 1 h 45 min
  84. Bit rate                                 : 34 b/s
  85. Count of elements                        : 961
  86. Stream size                              : 26.6 KiB (0%)
  87. Title                                    : Spanish
  88. Language                                 : Spanish
  89. Default                                  : No
  90. Forced                                   : No

  91. Text #4
  92. ID                                       : 6
  93. Format                                   : UTF-8
  94. Codec ID                                 : S_TEXT/UTF8
  95. Codec ID/Info                            : UTF-8 Plain Text
  96. Duration                                 : 1 h 47 min
  97. Bit rate                                 : 43 b/s
  98. Count of elements                        : 1452
  99. Stream size                              : 34.3 KiB (0%)
  100. Title                                    : Spanish [SDH]
  101. Language                                 : Spanish
  102. Default                                  : No
  103. Forced                                   : No
复制代码




                                       
                                       

                                       
                                       
                                       




回复

使用道具 举报

蓝光币
20
发表于 7 天前 | 显示全部楼层

这东西我收了!谢谢楼主!蓝光电影网真好!
回复 支持 反对

使用道具 举报

蓝光币
1
发表于 7 天前 | 显示全部楼层


这东西我收了!谢谢楼主!蓝光电影网真好!
回复 支持 反对

使用道具 举报

蓝光币
0
发表于 7 天前 | 显示全部楼层
这东西我收了!谢谢楼主!蓝光电影网真好!
回复 支持 反对

使用道具 举报

蓝光币
1
发表于 6 天前 | 显示全部楼层

楼主,大恩不言谢了!蓝光电影网是最棒的!
回复 支持 反对

使用道具 举报

蓝光币
238
发表于 6 天前 | 显示全部楼层
楼主发贴辛苦了,谢谢楼主分享!
回复 支持 反对

使用道具 举报

懒得打字嘛,点击右侧快捷回复 【右侧内容,后台自定义】
您需要登录后才可以回帖 登录 | 立即加入

本版积分规则

Archiver|小黑屋| 蓝光电影网 |网站地图

Copyright © 2021 Comsenz Inc. Powered by 蓝光电影网

蓝光电影网

本站内容由用户自主分享和转载自互联网,转载目的在于传递更多信息,并不代表本网赞同其观点和对其真实性负责。

如有侵权、违反国家法律政策行为,请联系我们,我们会第一时间及时清除和处理!

举报反馈邮箱:[email protected]

快速回复 返回顶部 返回列表