找回密码

蓝光电影网

查看: 190|回复: 0

[剧情] D日刺客 The.Filthy.Thirteen.2019.1080p.BluRay.REMUX.AVC.DTS-HD.MA.5.1-FGT 11.18GB

[复制链接]
蓝光币
513
发表于 2021-9-16 16:19:28 | 显示全部楼层 |阅读模式


◎译  名 D日刺客/The Filthy Thirteen
◎片  名 D-Day Assassins
◎年  代 2019
◎产  地 美国
◎类  别 剧情 / 战争
◎语  言 英语
◎上映日期 2019-05-28(美国)
◎豆瓣评分 /10 from 0 users
◎豆瓣链接 https://movie.douban.com/subject/30437899/
◎导  演 安德鲁·琼斯 Andrew Jones
◎编  剧 安德鲁·琼斯 Andrew Jones
◎主  演 李·贝恩 Lee Bane
       马克·霍姆斯 Mark Homes
       德里克·尼尔森 Derek Nelson
       帕里斯·斯坦格 Paris Stangl
       Vicki Glover Vicki Glover
       亚伦·杰夫科特 Aaron Jeffcoate
       西亚伦·戴维斯 Ciaron Davies
◎标  签 战争 | 二战 | 美国电影 | 美国 | 2019 | 敌后 | 特种行动 | 二战典范
◎简  介


  1944年,一群被称为“龌龊十三号”的叛逆美国兵士跳伞进入诺曼底履行一项很是使命
  1. Video
  2. ID                                       : 1
  3. ID in the original source medium         : 4113 (0x1011)
  4. Format                                   : AVC
  5. Format/Info                              : Advanced Video Codec
  6. Format profile                           : [email protected]
  7. Format settings                          : CABAC / 4 Ref Frames
  8. Format settings, CABAC                   : Yes
  9. Format settings, Reference frames        : 4 frames
  10. Codec ID                                 : V_MPEG4/ISO/AVC
  11. Duration                                 : 1 h 20 min
  12. Bit rate mode                            : Variable
  13. Bit rate                                 : 18.0 Mb/s
  14. Maximum bit rate                         : 38.0 Mb/s
  15. Width                                    : 1 920 pixels
  16. Height                                   : 1 080 pixels
  17. Display aspect ratio                     : 16:9
  18. Frame rate mode                          : Constant
  19. Frame rate                               : 23.976 (24000/1001/189150) FPS
  20. Standard                                 : Component
  21. Color space                              : YUV
  22. Chroma subsampling                       : 4:2:0
  23. Bit depth                                : 8 bits
  24. Scan type                                : Progressive
  25. Bits/(Pixel*Frame)                       : 0.362
  26. Stream size                              : 10.1 GiB (90%)
  27. Writing library                          : x264 core 155
  28. Encoding settings                        : cabac=1 / ref=4 / deblock=1:0:0 / analyse=0x3:0x113 / me=hex / subme=7 / psy=1 / psy_rd=1.00:0.00 / mixed_ref=1 / me_range=16 / chroma_me=1 / trellis=1 / 8x8dct=1 / cqm=1 / deadzone=21,11 / fast_pskip=1 / chroma_qp_offset=-2 / threads=34 / lookahead_threads=5 / sliced_threads=0 / slices=4 / nr=0 / decimate=1 / interlaced=0 / minigop=1 / stitchable=1 / constrained_intra=0 / bframes=3 / b_pyramid=0 / b_adapt=1 / b_bias=0 / direct=1 / weightb=1 / open_gop=1 / weightp=1 / keyint=24 / keyint_min=1 / scenecut=40 / intra_refresh=0 / rc_lookahead=24 / rc=2pass / mbtree=1 / bitrate=18000 / ratetol=1.0 / qcomp=0.60 / qpmin=3 / qpmax=69 / qpstep=4 / cplxblur=20.0 / qblur=0.5 / vbv_maxrate=38000 / vbv_bufsize=30000 / nal_hrd=vbr / filler=0 / ip_ratio=1.40 / aq=1:1.00
  29. Language                                 : English
  30. Default                                  : No
  31. Forced                                   : No
  32. Color range                              : Limited
  33. Color primaries                          : BT.709
  34. Transfer characteristics                 : BT.709
  35. Matrix coefficients                      : BT.709
  36. Original source medium                   : Blu-ray
  37. Audio
  38. ID                                       : 2
  39. ID in the original source medium         : 4353 (0x1101)
  40. Format                                   : DTS XLL
  41. Format/Info                              : Digital Theater Systems
  42. Commercial name                          : DTS-HD Master Audio
  43. Codec ID                                 : A_DTS
  44. Duration                                 : 1 h 20 min
  45. Bit rate mode                            : Variable
  46. Bit rate                                 : 1 893 kb/s
  47. Channel(s)                               : 6 channels
  48. Channel layout                           : C L R Ls Rs LFE
  49. Sampling rate                            : 48.0 kHz
  50. Frame rate                               : 93.750 FPS (512 SPF)
  51. Bit depth                                : 24 bits
  52. Compression mode                         : Lossless
  53. Stream size                              : 1.06 GiB (10%)
  54. Title                                    : DTS-HD MA 5.1
  55. Language                                 : English
  56. Default                                  : Yes
  57. Forced                                   : No
  58. Original source medium                   : Blu-ray
  59. Text #1
  60. ID                                       : 3
  61. Format                                   : UTF-8
  62. Codec ID                                 : S_TEXT/UTF8
  63. Codec ID/Info                            : UTF-8 Plain Text
  64. Duration                                 : 17 min 25 s
  65. Bit rate                                 : 2 b/s
  66. Count of elements                        : 10
  67. Stream size                              : 289 Bytes (0%)
  68. Title                                    : FORCED
  69. Language                                 : English
  70. Default                                  : Yes
  71. Forced                                   : Yes
  72. Text #2
  73. ID                                       : 4
  74. Format                                   : UTF-8
  75. Codec ID                                 : S_TEXT/UTF8
  76. Codec ID/Info                            : UTF-8 Plain Text
  77. Duration                                 : 1 h 12 min
  78. Bit rate                                 : 56 b/s
  79. Count of elements                        : 957
  80. Stream size                              : 29.7 KiB (0%)
  81. Language                                 : English
  82. Default                                  : No
  83. Forced                                   : No
  84. Text #3
  85. ID                                       : 5
  86. ID in the original source medium         : 4609 (0x1201)
  87. Format                                   : PGS
  88. Muxing mode                              : zlib
  89. Codec ID                                 : S_HDMV/PGS
  90. Codec ID/Info                            : Picture based subtitle format used on BDs/HD-DVDs
  91. Duration                                 : 17 min 25 s
  92. Bit rate                                 : 1 310 b/s
  93. Count of elements                        : 20
  94. Stream size                              : 167 KiB (0%)
  95. Language                                 : English
  96. Default                                  : No
  97. Forced                                   : No
  98. Original source medium                   : Blu-ray
  99. Menu
  100. 00:00:00.000                             : Chapter 01
  101. 00:06:37.480                             : Chapter 02
  102. 00:12:52.188                             : Chapter 03
  103. 00:18:10.964                             : Chapter 04
  104. 00:23:50.387                             : Chapter 05
  105. 00:31:19.294                             : Chapter 06
  106. 00:37:22.365                             : Chapter 07
  107. 00:43:00.536                             : Chapter 08
  108. 00:48:17.227                             : Chapter 09
  109. 00:54:25.053                             : Chapter 10
  110. 01:00:00.847                             : Chapter 11
  111. 01:06:41.831                             : Chapter 12
  112. 01:12:30.304                             : Chapter 13
  113. 01:20:22.859                             : Chapter 14
复制代码






                                       
                                       

                                       
                                       
                                       




回复

使用道具 举报

懒得打字嘛,点击右侧快捷回复 【右侧内容,后台自定义】
您需要登录后才可以回帖 登录 | 立即加入

本版积分规则

Archiver|小黑屋| 蓝光电影网 |网站地图

Copyright © 2021 Comsenz Inc. Powered by 蓝光电影网

蓝光电影网

本站内容由用户自主分享和转载自互联网,转载目的在于传递更多信息,并不代表本网赞同其观点和对其真实性负责。

如有侵权、违反国家法律政策行为,请联系我们,我们会第一时间及时清除和处理!

举报反馈邮箱:[email protected]

快速回复 返回顶部 返回列表