找回密码

蓝光电影网

查看: 138|回复: 3

[10bit.HDR] 德古拉/吸血僵尸 Dracula.1931.2160p.UHD.BluRay.x265.10bit.HDR.FLAC.2.0-B0MBARDiERS 18.82GB

[复制链接]
蓝光币
511
发表于 7 天前 | 显示全部楼层 |阅读模式


◎译  名 德古拉/吸血僵尸/吸血鬼/德拉库拉/恶夜怪魔/魔鬼
◎片  名 Dracula
◎年  代 1931
◎产  地 美国
◎类  别 可骇 / 奇异
◎语  言 英语,匈牙利语,拉丁语
◎上映日期 1931-02-14(美国)
◎豆瓣评分 7.2/10 from 2569 users
◎豆瓣链接 https://movie.douban.com/subject/1296182/
◎片  长 75 分钟(corrected release length)
◎导  演 托德·布朗宁 Tod Browning
◎编  剧 达德利·墨菲 Dudley Murphy / 加勒特·富特 Garrett Fort / 约翰·L·鲍尔德斯顿 John L. Balderston
◎主  演 贝拉·卢戈西 Bela Lugosi
       尼古拉斯·贝洛 Nicholas Bela
       黛西·贝尔莫尔 Daisy Belmore
       德怀特·弗莱伊 Dwight Frye
       大卫·曼纳斯 David Manners
       海伦·钱德勒 Helen Chandler
       爱德华·范·斯隆 Edward Van Sloan
◎标  签 吸血鬼 | 美国 | 可骇 | 典范 | 1930s | 美国电影 | 1931 | 黑白
◎简  介


  吸血鬼德古拉伯爵住在喀尔巴千山的深处,一个年轻地产掮客帮他把房产迁到伦敦,却被他惑为奴役并一路护送吸血鬼到伦敦。年轻女子露西被他吸血沦为吸血鬼,同时还危及其朋友米娜,米娜父亲终究看破吸血鬼真脸孔,决心要庇护米娜……典范可骇片,大导演哥普拉92年曾据此重拍《惊情四百年》。


  1. Video
  2. ID : 1
  3. Format : HEVC
  4. Format/Info : High Efficiency Video Coding
  5. Format profile : Main [email protected]@High
  6. HDR format : SMPTE ST 2086, HDR10 compatible
  7. Codec ID : V_MPEGH/ISO/HEVC
  8. Duration : 1 h 14 min
  9. Bit rate : 34.9 Mb/s
  10. Width : 2 916 pixels
  11. Height : 2 160 pixels
  12. Display aspect ratio : 4:3
  13. Frame rate mode : Constant
  14. Frame rate : 23.976 (24000/1001) FPS
  15. Color space : YUV
  16. Chroma subsampling : 4:2:0 (Type 2)
  17. Bit depth : 10 bits
  18. Bits/(Pixel*Frame) : 0.231
  19. Stream size : 18.2 GiB (97%)
  20. Writing library : x265 3.5+13-4c6880de4:[Windows][GCC 11.2.0][64 bit] 10bit
  21. Encoding settings : cpuid=1176575 / frame-threads=6 / numa-pools=36 / wpp / no-pmode / no-pme / no-psnr / no-ssim / log-level=2 / input-csp=1 / input-res=2916x2160 / interlace=0 / total-frames=107104 / level-idc=51 / high-tier=1 / uhd-bd=0 / ref=4 / no-allow-non-conformance / repeat-headers / annexb / aud / no-eob / no-eos / hrd / info / hash=0 / no-temporal-layers / open-gop / min-keyint=23 / keyint=250 / gop-lookahead=0 / bframes=4 / b-adapt=2 / b-pyramid / bframe-bias=0 / rc-lookahead=25 / lookahead-slices=4 / scenecut=40 / no-hist-scenecut / radl=0 / no-splice / no-intra-refresh / ctu=64 / min-cu-size=8 / rect / no-amp / max-tu-size=32 / tu-inter-depth=1 / tu-intra-depth=1 / limit-tu=0 / rdoq-level=2 / dynamic-rd=0.00 / no-ssim-rd / signhide / no-tskip / nr-intra=0 / nr-inter=0 / no-constrained-intra / strong-intra-smoothing / max-merge=3 / limit-refs=3 / limit-modes / me=3 / subme=3 / merange=57 / temporal-mvp / no-frame-dup / no-hme / weightp / no-weightb / no-analyze-src-pics / deblock=-3:-3 / no-sao / no-sao-non-deblock / rd=4 / selective-sao=0 / no-early-skip / rskip / no-fast-intra / no-tskip-fast / no-cu-lossless / no-b-intra / no-splitrd-skip / rdpenalty=0 / psy-rd=2.00 / psy-rdoq=1.00 / no-rd-refine / no-lossless / cbqpoffs=0 / crqpoffs=0 / rc=crf / crf=21.0 / qcomp=0.60 / qpstep=4 / stats-write=0 / stats-read=0 / vbv-maxrate=160000 / vbv-bufsize=160000 / vbv-init=0.9 / min-vbv-fullness=50.0 / max-vbv-fullness=80.0 / crf-max=0.0 / crf-min=0.0 / ipratio=1.40 / pbratio=1.30 / aq-mode=2 / aq-strength=1.00 / cutree / zone-count=0 / no-strict-cbr / qg-size=32 / no-rc-grain / qpmax=69 / qpmin=0 / no-const-vbv / sar=1 / overscan=0 / videoformat=5 / range=0 / colorprim=9 / transfer=16 / colormatrix=9 / chromaloc=1 / chromaloc-top=2 / chromaloc-bottom=2 / display-window=0 / master-display=G(13250,34500)B(7500,3000)R(34000,16000)WP(15635,16450)L(10000000,50) / cll=839,67 / min-luma=0 / max-luma=1023 / log2-max-poc-lsb=8 / vui-timing-info / vui-hrd-info / slices=1 / no-opt-qp-pps / no-opt-ref-list-length-pps / no-multi-pass-opt-rps / scenecut-bias=0.05 / hist-threshold=0.03 / no-opt-cu-delta-qp / no-aq-motion / hdr10 / hdr10-opt / no-dhdr10-opt / no-idr-recovery-sei / analysis-reuse-level=0 / analysis-save-reuse-level=0 / analysis-load-reuse-level=0 / scale-factor=0 / refine-intra=0 / refine-inter=0 / refine-mv=1 / refine-ctu-distortion=0 / no-limit-sao / ctu-info=0 / no-lowpass-dct / refine-analysis-type=0 / copy-pic=1 / max-ausize-factor=1.0 / no-dynamic-refine / no-single-sei / no-hevc-aq / no-svt / no-field / qp-adaptation-range=1.00 / scenecut-aware-qp=0conformance-window-offsets / right=0 / bottom=0 / decoder-max-rate=0 / no-vbv-live-multi-pass
  22. Default : Yes
  23. Forced : No
  24. Color range : Limited
  25. Color primaries : BT.2020
  26. Transfer characteristics : PQ
  27. Matrix coefficients : BT.2020 non-constant
  28. Mastering display color primaries : Display P3
  29. Mastering display luminance : min: 0.0050 cd/m2, max: 1000 cd/m2
  30. Maximum Content Light Level : 839 cd/m2
  31. Maximum Frame-Average Light Level : 67 cd/m2

  32. Audio #1
  33. ID : 2
  34. Format : FLAC
  35. Format/Info : Free Lossless Audio Codec
  36. Codec ID : A_FLAC
  37. Duration : 1 h 14 min
  38. Bit rate mode : Variable
  39. Bit rate : 511 kb/s
  40. Channel(s) : 2 channels
  41. Channel layout : L R
  42. Sampling rate : 48.0 kHz
  43. Frame rate : 11.719 FPS (4096 SPF)
  44. Bit depth : 24 bits
  45. Compression mode : Lossless
  46. Stream size : 272 MiB (1%)
  47. Writing library : libFLAC 1.2.1 (UTC 2007-09-17)
  48. Language : English
  49. Default : Yes
  50. Forced : No

  51. Audio #2
  52. ID : 3
  53. Format : AAC LC
  54. Format/Info : Advanced Audio Codec Low Complexity
  55. Codec ID : A_AAC-2
  56. Duration : 1 h 14 min
  57. Bit rate : 89.4 kb/s
  58. Channel(s) : 2 channels
  59. Channel layout : L R
  60. Sampling rate : 48.0 kHz
  61. Frame rate : 46.875 FPS (1024 SPF)
  62. Compression mode : Lossy
  63. Delay relative to video : 9 ms
  64. Stream size : 47.6 MiB (0%)
  65. Title : Commentary 1
  66. Language : English
  67. Default : Yes
  68. Forced : No

  69. Audio #3
  70. ID : 4
  71. Format : AAC LC
  72. Format/Info : Advanced Audio Codec Low Complexity
  73. Codec ID : A_AAC-2
  74. Duration : 1 h 14 min
  75. Bit rate : 90.3 kb/s
  76. Channel(s) : 2 channels
  77. Channel layout : L R
  78. Sampling rate : 48.0 kHz
  79. Frame rate : 46.875 FPS (1024 SPF)
  80. Compression mode : Lossy
  81. Delay relative to video : 9 ms
  82. Stream size : 48.1 MiB (0%)
  83. Title : Commentary 2
  84. Language : English
  85. Default : Yes
  86. Forced : No

  87. Text #1
  88. ID : 5
  89. Format : PGS
  90. Muxing mode : zlib
  91. Codec ID : S_HDMV/PGS
  92. Codec ID/Info : Picture based subtitle format used on BDs/HD-DVDs
  93. Duration : 1 h 13 min
  94. Bit rate : 31.3 kb/s
  95. Count of elements : 1710
  96. Stream size : 16.6 MiB (0%)
  97. Title : English SDH
  98. Language : English
  99. Default : No
  100. Forced : No

  101. Text #2
  102. ID : 6
  103. Format : PGS
  104. Muxing mode : zlib
  105. Codec ID : S_HDMV/PGS
  106. Codec ID/Info : Picture based subtitle format used on BDs/HD-DVDs
  107. Duration : 1 h 13 min
  108. Bit rate : 27.4 kb/s
  109. Count of elements : 1296
  110. Stream size : 14.3 MiB (0%)
  111. Title : French
  112. Language : French
  113. Default : No
  114. Forced : No

  115. Text #3
  116. ID : 7
  117. Format : PGS
  118. Muxing mode : zlib
  119. Codec ID : S_HDMV/PGS
  120. Codec ID/Info : Picture based subtitle format used on BDs/HD-DVDs
  121. Duration : 1 h 13 min
  122. Bit rate : 25.5 kb/s
  123. Count of elements : 1296
  124. Stream size : 13.3 MiB (0%)
  125. Title : Spanish
  126. Language : Spanish
  127. Default : No
  128. Forced : No

  129. Text #4
  130. ID : 8
  131. Format : PGS
  132. Muxing mode : zlib
  133. Codec ID : S_HDMV/PGS
  134. Codec ID/Info : Picture based subtitle format used on BDs/HD-DVDs
  135. Duration : 1 h 12 min
  136. Bit rate : 29.1 kb/s
  137. Count of elements : 1590
  138. Stream size : 15.1 MiB (0%)
  139. Title : Spanish
  140. Language : Spanish
  141. Default : No
  142. Forced : No

  143. Text #5
  144. ID : 9
  145. Format : PGS
  146. Muxing mode : zlib
  147. Codec ID : S_HDMV/PGS
  148. Codec ID/Info : Picture based subtitle format used on BDs/HD-DVDs
  149. Duration : 1 h 12 min
  150. Bit rate : 20.6 kb/s
  151. Count of elements : 1371
  152. Stream size : 10.7 MiB (0%)
  153. Title : Japanese
  154. Language : Japanese
  155. Default : No
  156. Forced : No

  157. Text #6
  158. ID : 10
  159. Format : PGS
  160. Muxing mode : zlib
  161. Codec ID : S_HDMV/PGS
  162. Codec ID/Info : Picture based subtitle format used on BDs/HD-DVDs
  163. Duration : 1 h 13 min
  164. Bit rate : 28.5 kb/s
  165. Count of elements : 1308
  166. Stream size : 14.9 MiB (0%)
  167. Title : German
  168. Language : German
  169. Default : No
  170. Forced : No

  171. Text #7
  172. ID : 11
  173. Format : PGS
  174. Muxing mode : zlib
  175. Codec ID : S_HDMV/PGS
  176. Codec ID/Info : Picture based subtitle format used on BDs/HD-DVDs
  177. Duration : 1 h 13 min
  178. Bit rate : 26.8 kb/s
  179. Count of elements : 1296
  180. Stream size : 14.0 MiB (0%)
  181. Title : Italian
  182. Language : Italian
  183. Default : No
  184. Forced : No

  185. Text #8
  186. ID : 12
  187. Format : PGS
  188. Muxing mode : zlib
  189. Codec ID : S_HDMV/PGS
  190. Codec ID/Info : Picture based subtitle format used on BDs/HD-DVDs
  191. Duration : 1 h 13 min
  192. Bit rate : 22.6 kb/s
  193. Count of elements : 1140
  194. Stream size : 11.8 MiB (0%)
  195. Title : Dutch
  196. Language : Dutch
  197. Default : No
  198. Forced : No

  199. Text #9
  200. ID : 13
  201. Format : PGS
  202. Muxing mode : zlib
  203. Codec ID : S_HDMV/PGS
  204. Codec ID/Info : Picture based subtitle format used on BDs/HD-DVDs
  205. Duration : 1 h 13 min
  206. Bit rate : 26.3 kb/s
  207. Count of elements : 1294
  208. Stream size : 13.8 MiB (0%)
  209. Title : Danish
  210. Language : Danish
  211. Default : No
  212. Forced : No

  213. Text #10
  214. ID : 14
  215. Format : PGS
  216. Muxing mode : zlib
  217. Codec ID : S_HDMV/PGS
  218. Codec ID/Info : Picture based subtitle format used on BDs/HD-DVDs
  219. Duration : 1 h 13 min
  220. Bit rate : 27.7 kb/s
  221. Count of elements : 1296
  222. Stream size : 14.5 MiB (0%)
  223. Title : Finnish
  224. Language : Finnish
  225. Default : No
  226. Forced : No

  227. Text #11
  228. ID : 15
  229. Format : PGS
  230. Muxing mode : zlib
  231. Codec ID : S_HDMV/PGS
  232. Codec ID/Info : Picture based subtitle format used on BDs/HD-DVDs
  233. Duration : 1 h 13 min
  234. Bit rate : 26.5 kb/s
  235. Count of elements : 1294
  236. Stream size : 13.9 MiB (0%)
  237. Title : Norwegian
  238. Language : Norwegian
  239. Default : No
  240. Forced : No

  241. Text #12
  242. ID : 16
  243. Format : PGS
  244. Muxing mode : zlib
  245. Codec ID : S_HDMV/PGS
  246. Codec ID/Info : Picture based subtitle format used on BDs/HD-DVDs
  247. Duration : 1 h 13 min
  248. Bit rate : 25.9 kb/s
  249. Count of elements : 1292
  250. Stream size : 13.6 MiB (0%)
  251. Title : Swedish
  252. Language : Swedish
  253. Default : No
  254. Forced : No

  255. Text #13
  256. ID : 17
  257. Format : PGS
  258. Muxing mode : zlib
  259. Codec ID : S_HDMV/PGS
  260. Codec ID/Info : Picture based subtitle format used on BDs/HD-DVDs
  261. Duration : 1 h 13 min
  262. Bit rate : 22.4 kb/s
  263. Count of elements : 1580
  264. Stream size : 11.7 MiB (0%)
  265. Title : Chinese
  266. Language : Chinese
  267. Default : No
  268. Forced : No

  269. Text #14
  270. ID : 18
  271. Format : PGS
  272. Muxing mode : zlib
  273. Codec ID : S_HDMV/PGS
  274. Codec ID/Info : Picture based subtitle format used on BDs/HD-DVDs
  275. Duration : 1 h 14 min
  276. Bit rate : 23.5 kb/s
  277. Count of elements : 322
  278. Stream size : 12.5 MiB (0%)
  279. Title : English
  280. Language : English
  281. Default : No
  282. Forced : No

  283. Text #15
  284. ID : 19
  285. Format : PGS
  286. Muxing mode : zlib
  287. Codec ID : S_HDMV/PGS
  288. Codec ID/Info : Picture based subtitle format used on BDs/HD-DVDs
  289. Duration : 1 h 14 min
  290. Bit rate : 24.0 kb/s
  291. Count of elements : 324
  292. Stream size : 12.7 MiB (0%)
  293. Title : French
  294. Language : French
  295. Default : No
  296. Forced : No

  297. Text #16
  298. ID : 20
  299. Format : PGS
  300. Muxing mode : zlib
  301. Codec ID : S_HDMV/PGS
  302. Codec ID/Info : Picture based subtitle format used on BDs/HD-DVDs
  303. Duration : 1 h 14 min
  304. Bit rate : 24.5 kb/s
  305. Count of elements : 324
  306. Stream size : 13.0 MiB (0%)
  307. Title : Spanish
  308. Language : Spanish
  309. Default : No
  310. Forced : No

  311. Text #17
  312. ID : 21
  313. Format : PGS
  314. Muxing mode : zlib
  315. Codec ID : S_HDMV/PGS
  316. Codec ID/Info : Picture based subtitle format used on BDs/HD-DVDs
  317. Duration : 1 h 14 min
  318. Bit rate : 25.8 kb/s
  319. Count of elements : 324
  320. Stream size : 13.7 MiB (0%)
  321. Title : German
  322. Language : German
  323. Default : No
  324. Forced : No

  325. Text #18
  326. ID : 22
  327. Format : PGS
  328. Muxing mode : zlib
  329. Codec ID : S_HDMV/PGS
  330. Codec ID/Info : Picture based subtitle format used on BDs/HD-DVDs
  331. Duration : 1 h 14 min
  332. Bit rate : 22.7 kb/s
  333. Count of elements : 324
  334. Stream size : 12.1 MiB (0%)
  335. Title : Italian
  336. Language : Italian
  337. Default : No
  338. Forced : No

  339. Text #19
  340. ID : 23
  341. Format : PGS
  342. Muxing mode : zlib
  343. Codec ID : S_HDMV/PGS
  344. Codec ID/Info : Picture based subtitle format used on BDs/HD-DVDs
  345. Duration : 1 h 14 min
  346. Bit rate : 81.7 kb/s
  347. Count of elements : 2606
  348. Stream size : 43.3 MiB (0%)
  349. Title : Commentary 1
  350. Language : English
  351. Default : No
  352. Forced : No

  353. Text #20
  354. ID : 24
  355. Format : PGS
  356. Muxing mode : zlib
  357. Codec ID : S_HDMV/PGS
  358. Codec ID/Info : Picture based subtitle format used on BDs/HD-DVDs
  359. Duration : 1 h 14 min
  360. Bit rate : 59.7 kb/s
  361. Count of elements : 2052
  362. Stream size : 31.7 MiB (0%)
  363. Title : French
  364. Language : French
  365. Default : No
  366. Forced : No

  367. Text #21
  368. ID : 25
  369. Format : PGS
  370. Muxing mode : zlib
  371. Codec ID : S_HDMV/PGS
  372. Codec ID/Info : Picture based subtitle format used on BDs/HD-DVDs
  373. Duration : 1 h 14 min
  374. Bit rate : 62.9 kb/s
  375. Count of elements : 2062
  376. Stream size : 33.4 MiB (0%)
  377. Title : Spanish
  378. Language : Spanish
  379. Default : No
  380. Forced : No

  381. Text #22
  382. ID : 26
  383. Format : PGS
  384. Muxing mode : zlib
  385. Codec ID : S_HDMV/PGS
  386. Codec ID/Info : Picture based subtitle format used on BDs/HD-DVDs
  387. Duration : 1 h 14 min
  388. Bit rate : 39.6 kb/s
  389. Count of elements : 1567
  390. Stream size : 21.0 MiB (0%)
  391. Title : Japanese
  392. Language : Japanese
  393. Default : No
  394. Forced : No

  395. Text #23
  396. ID : 27
  397. Format : PGS
  398. Muxing mode : zlib
  399. Codec ID : S_HDMV/PGS
  400. Codec ID/Info : Picture based subtitle format used on BDs/HD-DVDs
  401. Duration : 1 h 14 min
  402. Bit rate : 62.8 kb/s
  403. Count of elements : 2062
  404. Stream size : 33.4 MiB (0%)
  405. Title : German
  406. Language : German
  407. Default : No
  408. Forced : No

  409. Text #24
  410. ID : 28
  411. Format : PGS
  412. Muxing mode : zlib
  413. Codec ID : S_HDMV/PGS
  414. Codec ID/Info : Picture based subtitle format used on BDs/HD-DVDs
  415. Duration : 1 h 14 min
  416. Bit rate : 63.8 kb/s
  417. Count of elements : 2062
  418. Stream size : 33.9 MiB (0%)
  419. Title : Italian
  420. Language : Italian
  421. Default : No
  422. Forced : No

  423. Text #25
  424. ID : 29
  425. Format : PGS
  426. Muxing mode : zlib
  427. Codec ID : S_HDMV/PGS
  428. Codec ID/Info : Picture based subtitle format used on BDs/HD-DVDs
  429. Duration : 1 h 14 min
  430. Bit rate : 84.0 kb/s
  431. Count of elements : 2706
  432. Stream size : 44.6 MiB (0%)
  433. Title : Commentary 2
  434. Language : English
  435. Default : No
  436. Forced : No

  437. Text #26
  438. ID : 30
  439. Format : PGS
  440. Muxing mode : zlib
  441. Codec ID : S_HDMV/PGS
  442. Codec ID/Info : Picture based subtitle format used on BDs/HD-DVDs
  443. Duration : 1 h 14 min
  444. Bit rate : 85.2 kb/s
  445. Count of elements : 2706
  446. Stream size : 45.3 MiB (0%)
  447. Title : French
  448. Language : French
  449. Default : No
  450. Forced : No

  451. Text #27
  452. ID : 31
  453. Format : PGS
  454. Muxing mode : zlib
  455. Codec ID : S_HDMV/PGS
  456. Codec ID/Info : Picture based subtitle format used on BDs/HD-DVDs
  457. Duration : 1 h 14 min
  458. Bit rate : 83.7 kb/s
  459. Count of elements : 2712
  460. Stream size : 44.5 MiB (0%)
  461. Title : Spanish
  462. Language : Spanish
  463. Default : No
  464. Forced : No

  465. Text #28
  466. ID : 32
  467. Format : PGS
  468. Muxing mode : zlib
  469. Codec ID : S_HDMV/PGS
  470. Codec ID/Info : Picture based subtitle format used on BDs/HD-DVDs
  471. Duration : 1 h 14 min
  472. Bit rate : 48.3 kb/s
  473. Count of elements : 1740
  474. Stream size : 25.7 MiB (0%)
  475. Title : Japanese
  476. Language : Japanese
  477. Default : No
  478. Forced : No

  479. Text #29
  480. ID : 33
  481. Format : PGS
  482. Muxing mode : zlib
  483. Codec ID : S_HDMV/PGS
  484. Codec ID/Info : Picture based subtitle format used on BDs/HD-DVDs
  485. Duration : 1 h 14 min
  486. Bit rate : 86.4 kb/s
  487. Count of elements : 2712
  488. Stream size : 45.9 MiB (0%)
  489. Title : German
  490. Language : German
  491. Default : No
  492. Forced : No

  493. Text #30
  494. ID : 34
  495. Format : PGS
  496. Muxing mode : zlib
  497. Codec ID : S_HDMV/PGS
  498. Codec ID/Info : Picture based subtitle format used on BDs/HD-DVDs
  499. Duration : 1 h 14 min
  500. Bit rate : 84.2 kb/s
  501. Count of elements : 2712
  502. Stream size : 44.8 MiB (0%)
  503. Title : Italian
  504. Language : Italian
  505. Default : No
  506. Forced : No

  507. Text #31
  508. ID : 35
  509. Format : PGS
  510. Muxing mode : zlib
  511. Codec ID : S_HDMV/PGS
  512. Codec ID/Info : Picture based subtitle format used on BDs/HD-DVDs
  513. Duration : 24 min 34 s
  514. Bit rate : 7 930 b/s
  515. Count of elements : 138
  516. Stream size : 1.39 MiB (0%)
  517. Title : Spanish
  518. Language : Spanish
  519. Default : No
  520. Forced : No

  521. Text #32
  522. ID : 36
  523. Format : PGS
  524. Muxing mode : zlib
  525. Codec ID : S_HDMV/PGS
  526. Codec ID/Info : Picture based subtitle format used on BDs/HD-DVDs
  527. Duration : 44 min 28 s
  528. Bit rate : 60 b/s
  529. Count of elements : 4
  530. Stream size : 19.6 KiB (0%)
  531. Title : German
  532. Language : German
  533. Default : No
  534. Forced : No

  535. Menu
  536. 00:00:00.000 : Chapter 01
  537. 00:01:10.696 : Chapter 02
  538. 00:05:15.190 : Chapter 03
  539. 00:09:11.092 : Chapter 04
  540. 00:12:00.345 : Chapter 05
  541. 00:18:09.380 : Chapter 06
  542. 00:21:26.410 : Chapter 07
  543. 00:27:29.690 : Chapter 08
  544. 00:29:53.583 : Chapter 09
  545. 00:32:49.926 : Chapter 10
  546. 00:36:28.561 : Chapter 11
  547. 00:40:27.592 : Chapter 12
  548. 00:45:36.233 : Chapter 13
  549. 00:49:23.085 : Chapter 14
  550. 00:58:24.126 : Chapter 15
  551. 01:00:50.480 : Chapter 16
  552. 01:06:29.777 : Chapter 17
  553. 01:10:28.266 : Chapter 18
  554. 01:14:26.879 : Chapter 19
复制代码




                                       
                                       

                                       
                                       
                                       




回复

使用道具 举报

蓝光币
25
发表于 7 天前 | 显示全部楼层
这么早期的都有4K,牛逼了,谢谢
回复 支持 反对

使用道具 举报

蓝光币
6
发表于 6 天前 | 显示全部楼层

这个帖子不回对不起自己!我想我是一天也不能离开蓝光电影网。
回复 支持 反对

使用道具 举报

蓝光币
2
发表于 5 天前 | 显示全部楼层
一定要收藏,好电影一部
回复 支持 反对

使用道具 举报

懒得打字嘛,点击右侧快捷回复 【右侧内容,后台自定义】
您需要登录后才可以回帖 登录 | 立即加入

本版积分规则

Archiver|小黑屋| 蓝光电影网 |网站地图

Copyright © 2021 Comsenz Inc. Powered by 蓝光电影网

蓝光电影网

本站内容由用户自主分享和转载自互联网,转载目的在于传递更多信息,并不代表本网赞同其观点和对其真实性负责。

如有侵权、违反国家法律政策行为,请联系我们,我们会第一时间及时清除和处理!

举报反馈邮箱:[email protected]

快速回复 返回顶部 返回列表