找回密码

蓝光电影网

查看: 81|回复: 3

[10bit.HDR] 月光光心慌慌 Halloween.1978.SCREAM.2160p.UHD.BluRay.x265.10bit.HDR.DTS-HD.MA.TrueHD.7.1.Atmos-SWTYBLZ 36.01GB

[复制链接]
蓝光币
511
发表于 6 天前 | 显示全部楼层 |阅读模式


◎译  名 月光光心慌慌/John Carpenter's Halloween/万圣节/抓鬼节
◎片  名 Halloween
◎年  代 1978
◎产  地 美国
◎类  别 惊悚 / 可骇
◎语  言 英语
◎上映日期 1978-10-25
◎豆瓣评分 6.7/10 from 12589 users
◎豆瓣链接 https://movie.douban.com/subject/1299586/
◎片  长 91 分钟
◎导  演 约翰·卡朋特 John Carpenter
◎编  剧 约翰·卡朋特 John Carpenter / 黛布拉·希尔 Debra Hill
◎主  演 唐纳德·普利森斯 Donald Pleasence
       杰米·李·柯蒂斯 Jamie Lee Curtis
       南希·凯斯 Nancy Kyes
       P·J·索尔丝 P.J. Soles
       Charles Cyphers Charles Cyphers
       Darla Rae Darla Rae
◎标  签 可骇 | 美国 | 惊悚 | 典范 | 月光光心慌慌 | 1978 | 美国电影 | 可骇片
◎简  介


  十五年前的万圣节,哈登菲尔德镇的六岁男孩迈克尔(威尔?桑丁 Will?Sandin 饰)用一把菜刀杀死了他的姐姐,当人们发现他时,他正双手血淋淋的呆望着天空,不管怎样问话,他连结着阿谁姿势一动也不动。因而,迈克尔被送进了精神医院。在那边,医生费尽了心机,用尽了各类方式,迈克尔还是呆望天空一动也不动。直到1978年的12月30日,迈克尔(东尼?莫兰 Tony?Moran 饰)似乎听到了某种呼唤,偷了精神医院的钥匙,单独偷走回到了故乡哈登菲尔德。一场新的杀戮行将起头……


  1. Video
  2. ID : 1
  3. Format : HEVC
  4. Format/Info : High Efficiency Video Coding
  5. Format profile : Main [email protected]@High
  6. HDR format : SMPTE ST 2086, HDR10 compatible
  7. Codec ID : V_MPEGH/ISO/HEVC
  8. Duration : 1 h 31 min
  9. Bit rate : 46.9 Mb/s
  10. Width : 3 840 pixels
  11. Height : 1 606 pixels
  12. Display aspect ratio : 2.40:1
  13. Frame rate mode : Constant
  14. Frame rate : 24.000 FPS
  15. Color space : YUV
  16. Chroma subsampling : 4:2:0 (Type 2)
  17. Bit depth : 10 bits
  18. Bits/(Pixel*Frame) : 0.317
  19. Stream size : 29.9 GiB (83%)
  20. Writing library : x265 3.0_Au+10-74a8672ea4f7:[Windows][GCC 8.2.1][64 bit] 10bit
  21. Encoding settings : cpuid=1111039 / frame-threads=6 / numa-pools=40 / wpp / no-pmode / no-pme / no-psnr / no-ssim / log-level=2 / input-csp=1 / input-res=3840x1606 / interlace=0 / total-frames=0 / level-idc=51 / high-tier=1 / uhd-bd=0 / ref=3 / no-allow-non-conformance / repeat-headers / annexb / aud / hrd / info / hash=0 / no-temporal-layers / no-open-gop / min-keyint=1 / keyint=24 / gop-lookahead=0 / bframes=4 / b-adapt=2 / b-pyramid / bframe-bias=0 / rc-lookahead=25 / lookahead-slices=4 / scenecut=40 / radl=0 / no-splice / no-intra-refresh / ctu=64 / min-cu-size=8 / no-rect / no-amp / max-tu-size=32 / tu-inter-depth=1 / tu-intra-depth=1 / limit-tu=0 / rdoq-level=0 / dynamic-rd=0.00 / no-ssim-rd / signhide / no-tskip / nr-intra=0 / nr-inter=0 / no-constrained-intra / strong-intra-smoothing / max-merge=2 / limit-refs=3 / no-limit-modes / me=1 / subme=2 / merange=57 / temporal-mvp / weightp / no-weightb / no-analyze-src-pics / deblock=0:0 / no-sao / no-sao-non-deblock / rd=3 / no-early-skip / rskip / no-fast-intra / no-tskip-fast / no-cu-lossless / no-b-intra / no-splitrd-skip / rdpenalty=0 / psy-rd=2.00 / psy-rdoq=0.00 / no-rd-refine / no-lossless / cbqpoffs=0 / crqpoffs=0 / rc=crf / crf=16.0 / qcomp=0.60 / qpstep=4 / stats-write=0 / stats-read=0 / vbv-maxrate=160000 / vbv-bufsize=160000 / vbv-init=0.9 / crf-max=0.0 / crf-min=0.0 / ipratio=1.40 / pbratio=1.30 / aq-mode=1 / aq-strength=1.00 / cutree / zone-count=0 / no-strict-cbr / qg-size=32 / no-rc-grain / qpmax=69 / qpmin=0 / no-const-vbv / sar=1 / overscan=0 / videoformat=5 / range=0 / colorprim=9 / transfer=16 / colormatrix=9 / chromaloc=1 / chromaloc-top=2 / chromaloc-bottom=2 / display-window=0 / master-display=G(13250,34500)B(7500,3000)R(34000,16000)WP(15635,16450)L(10000000,01) / max-cll=10000,323 / min-luma=0 / max-luma=1023 / log2-max-poc-lsb=8 / vui-timing-info / vui-hrd-info / slices=1 / opt-qp-pps / opt-ref-list-length-pps / no-multi-pass-opt-rps / scenecut-bias=0.05 / no-opt-cu-delta-qp / no-aq-motion / hdr / hdr-opt / no-dhdr10-opt / no-idr-recovery-sei / analysis-reuse-level=5 / scale-factor=0 / refine-intra=0 / refine-inter=0 / refine-mv=0 / refine-ctu-distortion=0 / no-limit-sao / ctu-info=0 / no-lowpass-dct / refine-analysis-type=-274739410 / copy-pic=1 / max-ausize-factor=1.0 / no-dynamic-refine / no-single-sei / no-hevc-aq / no-svt / qp-adaptation-range=1.00
  22. Default : Yes
  23. Forced : No
  24. Color range : Limited
  25. Color primaries : BT.2020
  26. Transfer characteristics : PQ
  27. Matrix coefficients : BT.2020 non-constant
  28. Mastering display color primaries : Display P3
  29. Mastering display luminance : min: 0.0001 cd/m2, max: 1000 cd/m2
  30. Maximum Content Light Level : 10000 cd/m2
  31. Maximum Frame-Average Light Level : 323 cd/m2

  32. Audio #1
  33. ID : 2
  34. ID in the original source medium : 4354 (0x1102)
  35. Format : MLP FBA 16-ch
  36. Format/Info : Meridian Lossless Packing FBA with 16-channel presentation
  37. Commercial name : Dolby TrueHD with Dolby Atmos
  38. Codec ID : A_TRUEHD
  39. Duration : 1 h 31 min
  40. Bit rate mode : Variable
  41. Bit rate : 4 551 kb/s
  42. Maximum bit rate : 7 509 kb/s
  43. Channel(s) : 8 channels
  44. Channel layout : L R C LFE Ls Rs Lb Rb
  45. Sampling rate : 48.0 kHz
  46. Frame rate : 1 200.000 FPS (40 SPF)
  47. Bit depth : 24 bits
  48. Compression mode : Lossless
  49. Stream size : 2.90 GiB (8%)
  50. Title : TrueHD 7.1 Atmos
  51. Language : English
  52. Default : Yes
  53. Forced : No
  54. Original source medium : Blu-ray
  55. Number of dynamic objects : 11
  56. Bed channel count : 1 channel
  57. Bed channel configuration : LFE

  58. Audio #2
  59. ID : 3
  60. Format : DTS XLL
  61. Format/Info : Digital Theater Systems
  62. Commercial name : DTS-HD Master Audio
  63. Codec ID : A_DTS
  64. Duration : 1 h 31 min
  65. Bit rate mode : Variable
  66. Bit rate : 4 274 kb/s
  67. Channel(s) : 8 channels
  68. Channel layout : C L R LFE Lb Rb Lss Rss
  69. Sampling rate : 48.0 kHz
  70. Frame rate : 93.750 FPS (512 SPF)
  71. Bit depth : 24 bits
  72. Compression mode : Lossless
  73. Stream size : 2.72 GiB (8%)
  74. Title : DTS-HD MA 7.1
  75. Language : English
  76. Default : No
  77. Forced : No

  78. Audio #3
  79. ID : 4
  80. ID in the original source medium : 4354 (0x1102)
  81. Format : AC-3
  82. Format/Info : Audio Coding 3
  83. Commercial name : Dolby Digital
  84. Codec ID : A_AC3
  85. Duration : 1 h 31 min
  86. Bit rate mode : Constant
  87. Bit rate : 384 kb/s
  88. Channel(s) : 6 channels
  89. Channel layout : L R C LFE Ls Rs
  90. Sampling rate : 48.0 kHz
  91. Frame rate : 31.250 FPS (1536 SPF)
  92. Compression mode : Lossy
  93. Stream size : 251 MiB (1%)
  94. Title : DD 5.1
  95. Language : English
  96. Service kind : Complete Main
  97. Default : No
  98. Forced : No
  99. Original source medium : Blu-ray

  100. Text #1
  101. ID : 5
  102. Format : UTF-8
  103. Codec ID : S_TEXT/UTF8
  104. Codec ID/Info : UTF-8 Plain Text
  105. Duration : 1 h 25 min
  106. Bit rate : 37 b/s
  107. Count of elements : 846
  108. Stream size : 23.1 KiB (0%)
  109. Title : SRT
  110. Language : English
  111. Default : Yes
  112. Forced : No

  113. Text #2
  114. ID : 6
  115. ID in the original source medium : 4768 (0x12A0)
  116. Format : PGS
  117. Muxing mode : zlib
  118. Codec ID : S_HDMV/PGS
  119. Codec ID/Info : Picture based subtitle format used on BDs/HD-DVDs
  120. Duration : 1 h 29 min
  121. Bit rate : 26.7 kb/s
  122. Count of elements : 2280
  123. Stream size : 17.1 MiB (0%)
  124. Language : English
  125. Default : No
  126. Forced : No
  127. Original source medium : Blu-ray

  128. Menu
  129. 00:00:00.000 : Chapter 00
  130. 00:11:09.541 : Chapter 01
  131. 00:18:36.625 : Chapter 02
  132. 00:26:24.166 : Chapter 03
  133. 00:33:23.875 : Chapter 04
  134. 00:42:59.083 : Chapter 05
  135. 00:50:31.583 : Chapter 06
  136. 00:58:29.250 : Chapter 07
  137. 01:06:04.250 : Chapter 08
  138. 01:12:52.666 : Chapter 09
  139. 01:20:56.125 : Chapter 10
  140. 01:26:02.833 : Chapter 11
复制代码






                                       
                                       

                                       
                                       
                                       




回复

使用道具 举报

蓝光币
2993
发表于 6 天前 | 显示全部楼层

这个帖子不回对不起自己!我想我是一天也不能离开蓝光电影网。
回复 支持 反对

使用道具 举报

蓝光币
23
发表于 6 天前 | 显示全部楼层

这个帖子不回对不起自己!我想我是一天也不能离开蓝光电影网。
回复 支持 反对

使用道具 举报

蓝光币
7
发表于 6 天前 | 显示全部楼层

论坛不能没有像楼主这样的人才啊!我会一直支持蓝光电影网。
回复 支持 反对

使用道具 举报

懒得打字嘛,点击右侧快捷回复 【右侧内容,后台自定义】
您需要登录后才可以回帖 登录 | 立即加入

本版积分规则

Archiver|小黑屋| 蓝光电影网 |网站地图

Copyright © 2021 Comsenz Inc. Powered by 蓝光电影网

蓝光电影网

本站内容由用户自主分享和转载自互联网,转载目的在于传递更多信息,并不代表本网赞同其观点和对其真实性负责。

如有侵权、违反国家法律政策行为,请联系我们,我们会第一时间及时清除和处理!

举报反馈邮箱:[email protected]

快速回复 返回顶部 返回列表