找回密码

蓝光电影网

查看: 84|回复: 1

[10bit.HDR] 科学怪人/弗兰肯斯坦 Frankenstein.1931.2160p.UHD.BluRay.x265.10bit.HDR.FLAC.2.0-B0MBARDiERS 31.75GB

[复制链接]
蓝光币
511
发表于 6 天前 | 显示全部楼层 |阅读模式


◎译  名 科学怪人/弗兰肯斯坦/魔鬼博士
◎片  名 Frankenstein
◎年  代 1931
◎产  地 美国
◎类  别 科幻 / 可骇
◎语  言 英语,拉丁语
◎上映日期 1931-11-21
◎豆瓣评分 7.5/10 from 6119 users
◎豆瓣链接 https://movie.douban.com/subject/1296929/
◎片  长 70 分钟
◎导  演 詹姆斯·惠尔 James Whale
◎编  剧 加勒特·富特 Garrett Fort / 弗朗西斯·爱德华·法拉格 Francis Edward Faragoh / 约翰·L·鲍尔德斯顿 John L. Balderston / 玛丽·雪莱 Mary Shelley / 佩吉·韦伯林 Peggy Webling / 理查德·沙耶尔 Richard Schayer / 罗伯特·弗洛里 Robert Florey / 约翰·罗素 John Russell
◎主  演 科林·克利夫 Colin Clive
       梅·克拉克 Mae Clarke
       约翰·博尔斯 John Boles
       波利斯·卡洛夫 Boris Karloff
       爱德华·范·斯隆 Edward Van Sloan
       Soledad Jiménez Soledad Jiménez
       弗雷德里克·克尔 Frederick Kerr
       Ellinor Vanderveer Ellinor Vanderveer
       Michael Mark Michael Mark
       Rose Plumer Rose Plumer
       塞西尔·雷诺兹 Cecil Reynolds
       Inez Palange Inez Palange
       玛丽·戈登 Mary Gordon
       Arletta Duncan Arletta Duncan
       德怀特·弗莱伊 Dwight Frye
       宝琳·摩尔 Pauline Moore
       Marilyn Harris Marilyn Harris
       西西莉娅·帕克 Cecilia Parker
       弗朗西斯·福特 Francis Ford
       Paul Panzer Paul Panzer
       莱昂内尔·贝尔莫尔 Lionel Belmore
       泰德·比林斯 Ted Billings
       Jack Curtis Jack Curtis
◎标  签 科幻 | 美国 | 可骇 | 科学怪人 | 惊悚 | 1931 | 1930s | 美国电影
◎简  介


  弗兰肯斯坦(科林·克利夫 Colin Clive 饰)是一个天赋科学家,他想像天主一样缔造生命,因而掉臂黉舍教授的否决,分开了大学,和助手到山上的一座古堡里做人体尝试。他从墓地等地方找来了各类人体残肢,还从黉舍尝试室偷了一颗大脑,操纵这些制造出一具人体。他的未婚妻伊丽莎 白(梅·克拉克 Mae Clarke 饰)出于担忧,就与好友(约翰·博尔斯 John Boles 饰)和黉舍教授一同去古堡尝试室找弗兰肯斯坦。正是在这个狂风雨之夜,弗兰肯斯坦的人体尝试完成了——他操纵雷电让手术台上的躯体有了生命。但是几天后,这个由科学家缔造出来的怪物起头不受控制,他先是把科学家的助手杀死,又起头进犯教授和科学家。
  
  因而,身心俱疲的科学家被接了回家,而且起头准备婚礼,而怪物则留给教授处置。可是怪物却把教授杀死了,从尝试台上逃了出来,一步一步走近村落,还把一个小女孩淹死。正在举行婚礼的弗兰肯斯坦对此浑然不知……
◎获奖情况
  第1届威尼斯电影节 ?(1932)
  观众票选奖(提名) 詹姆斯·惠尔

  1. Video
  2. ID : 1
  3. Format : HEVC
  4. Format/Info : High Efficiency Video Coding
  5. Format profile : Main [email protected]@High
  6. HDR format : SMPTE ST 2086, HDR10 compatible
  7. Codec ID : V_MPEGH/ISO/HEVC
  8. Duration : 1 h 10 min
  9. Bit rate : 62.6 Mb/s
  10. Width : 2 914 pixels
  11. Height : 2 160 pixels
  12. Display aspect ratio : 4:3
  13. Frame rate mode : Constant
  14. Frame rate : 23.976 (24000/1001) FPS
  15. Color space : YUV
  16. Chroma subsampling : 4:2:0 (Type 2)
  17. Bit depth : 10 bits
  18. Bits/(Pixel*Frame) : 0.415
  19. Stream size : 30.7 GiB (98%)
  20. Writing library : x265 3.5+13-4c6880de4:[Windows][GCC 11.2.0][64 bit] 10bit
  21. Encoding settings : cpuid=1176575 / frame-threads=6 / numa-pools=36 / wpp / no-pmode / no-pme / no-psnr / no-ssim / log-level=2 / input-csp=1 / input-res=2914x2160 / interlace=0 / total-frames=100983 / level-idc=51 / high-tier=1 / uhd-bd=0 / ref=4 / no-allow-non-conformance / repeat-headers / annexb / aud / no-eob / no-eos / hrd / info / hash=0 / no-temporal-layers / open-gop / min-keyint=23 / keyint=250 / gop-lookahead=0 / bframes=4 / b-adapt=2 / b-pyramid / bframe-bias=0 / rc-lookahead=25 / lookahead-slices=4 / scenecut=40 / no-hist-scenecut / radl=0 / no-splice / no-intra-refresh / ctu=64 / min-cu-size=8 / rect / no-amp / max-tu-size=32 / tu-inter-depth=1 / tu-intra-depth=1 / limit-tu=0 / rdoq-level=2 / dynamic-rd=0.00 / no-ssim-rd / signhide / no-tskip / nr-intra=0 / nr-inter=0 / no-constrained-intra / strong-intra-smoothing / max-merge=3 / limit-refs=3 / limit-modes / me=3 / subme=3 / merange=57 / temporal-mvp / no-frame-dup / no-hme / weightp / no-weightb / no-analyze-src-pics / deblock=-3:-3 / no-sao / no-sao-non-deblock / rd=4 / selective-sao=0 / no-early-skip / rskip / no-fast-intra / no-tskip-fast / no-cu-lossless / no-b-intra / no-splitrd-skip / rdpenalty=0 / psy-rd=2.00 / psy-rdoq=1.00 / no-rd-refine / no-lossless / cbqpoffs=0 / crqpoffs=0 / rc=crf / crf=15.5 / qcomp=0.60 / qpstep=4 / stats-write=0 / stats-read=0 / vbv-maxrate=160000 / vbv-bufsize=160000 / vbv-init=0.9 / min-vbv-fullness=50.0 / max-vbv-fullness=80.0 / crf-max=0.0 / crf-min=0.0 / ipratio=1.40 / pbratio=1.30 / aq-mode=2 / aq-strength=1.00 / cutree / zone-count=0 / no-strict-cbr / qg-size=32 / no-rc-grain / qpmax=69 / qpmin=0 / no-const-vbv / sar=1 / overscan=0 / videoformat=5 / range=0 / colorprim=9 / transfer=16 / colormatrix=9 / chromaloc=1 / chromaloc-top=2 / chromaloc-bottom=2 / display-window=0 / master-display=G(13250,34500)B(7500,3000)R(34000,16000)WP(15635,16450)L(10000000,50) / cll=944,41 / min-luma=0 / max-luma=1023 / log2-max-poc-lsb=8 / vui-timing-info / vui-hrd-info / slices=1 / no-opt-qp-pps / no-opt-ref-list-length-pps / no-multi-pass-opt-rps / scenecut-bias=0.05 / hist-threshold=0.03 / no-opt-cu-delta-qp / no-aq-motion / hdr10 / hdr10-opt / no-dhdr10-opt / no-idr-recovery-sei / analysis-reuse-level=0 / analysis-save-reuse-level=0 / analysis-load-reuse-level=0 / scale-factor=0 / refine-intra=0 / refine-inter=0 / refine-mv=1 / refine-ctu-distortion=0 / no-limit-sao / ctu-info=0 / no-lowpass-dct / refine-analysis-type=0 / copy-pic=1 / max-ausize-factor=1.0 / no-dynamic-refine / no-single-sei / no-hevc-aq / no-svt / no-field / qp-adaptation-range=1.00 / scenecut-aware-qp=0conformance-window-offsets / right=0 / bottom=0 / decoder-max-rate=0 / no-vbv-live-multi-pass
  22. Default : Yes
  23. Forced : No
  24. Color range : Limited
  25. Color primaries : BT.2020
  26. Transfer characteristics : PQ
  27. Matrix coefficients : BT.2020 non-constant
  28. Mastering display color primaries : Display P3
  29. Mastering display luminance : min: 0.0050 cd/m2, max: 1000 cd/m2
  30. Maximum Content Light Level : 944 cd/m2
  31. Maximum Frame-Average Light Level : 41 cd/m2

  32. Audio #1
  33. ID : 2
  34. Format : FLAC
  35. Format/Info : Free Lossless Audio Codec
  36. Codec ID : A_FLAC
  37. Duration : 1 h 10 min
  38. Bit rate mode : Variable
  39. Bit rate : 621 kb/s
  40. Channel(s) : 2 channels
  41. Channel layout : L R
  42. Sampling rate : 48.0 kHz
  43. Frame rate : 11.719 FPS (4096 SPF)
  44. Bit depth : 24 bits
  45. Compression mode : Lossless
  46. Stream size : 312 MiB (1%)
  47. Writing library : libFLAC 1.2.1 (UTC 2007-09-17)
  48. Language : English
  49. Default : Yes
  50. Forced : No

  51. Audio #2
  52. ID : 3
  53. Format : AAC LC
  54. Format/Info : Advanced Audio Codec Low Complexity
  55. Codec ID : A_AAC-2
  56. Duration : 1 h 10 min
  57. Bit rate : 83.9 kb/s
  58. Channel(s) : 2 channels
  59. Channel layout : L R
  60. Sampling rate : 48.0 kHz
  61. Frame rate : 46.875 FPS (1024 SPF)
  62. Compression mode : Lossy
  63. Delay relative to video : 9 ms
  64. Stream size : 42.1 MiB (0%)
  65. Title : Commentary 1
  66. Language : English
  67. Default : Yes
  68. Forced : No

  69. Audio #3
  70. ID : 4
  71. Format : AAC LC
  72. Format/Info : Advanced Audio Codec Low Complexity
  73. Codec ID : A_AAC-2
  74. Duration : 1 h 10 min
  75. Bit rate : 90.1 kb/s
  76. Channel(s) : 2 channels
  77. Channel layout : L R
  78. Sampling rate : 48.0 kHz
  79. Frame rate : 46.875 FPS (1024 SPF)
  80. Compression mode : Lossy
  81. Delay relative to video : 9 ms
  82. Stream size : 45.3 MiB (0%)
  83. Title : Commentary 2
  84. Language : English
  85. Default : Yes
  86. Forced : No

  87. Text #1
  88. ID : 5
  89. Format : PGS
  90. Muxing mode : zlib
  91. Codec ID : S_HDMV/PGS
  92. Codec ID/Info : Picture based subtitle format used on BDs/HD-DVDs
  93. Duration : 1 h 9 min
  94. Bit rate : 33.4 kb/s
  95. Count of elements : 1736
  96. Stream size : 16.5 MiB (0%)
  97. Title : English SDH
  98. Language : English
  99. Default : No
  100. Forced : No

  101. Text #2
  102. ID : 6
  103. Format : PGS
  104. Muxing mode : zlib
  105. Codec ID : S_HDMV/PGS
  106. Codec ID/Info : Picture based subtitle format used on BDs/HD-DVDs
  107. Duration : 1 h 10 min
  108. Bit rate : 25.3 kb/s
  109. Count of elements : 1221
  110. Stream size : 12.7 MiB (0%)
  111. Title : French
  112. Language : French
  113. Default : No
  114. Forced : No

  115. Text #3
  116. ID : 7
  117. Format : PGS
  118. Muxing mode : zlib
  119. Codec ID : S_HDMV/PGS
  120. Codec ID/Info : Picture based subtitle format used on BDs/HD-DVDs
  121. Duration : 1 h 10 min
  122. Bit rate : 25.2 kb/s
  123. Count of elements : 1188
  124. Stream size : 12.7 MiB (0%)
  125. Title : Spanish
  126. Language : Spanish
  127. Default : No
  128. Forced : No

  129. Text #4
  130. ID : 8
  131. Format : PGS
  132. Muxing mode : zlib
  133. Codec ID : S_HDMV/PGS
  134. Codec ID/Info : Picture based subtitle format used on BDs/HD-DVDs
  135. Duration : 1 h 9 min
  136. Bit rate : 26.9 kb/s
  137. Count of elements : 1234
  138. Stream size : 13.3 MiB (0%)
  139. Title : Spanish
  140. Language : Spanish
  141. Default : No
  142. Forced : No

  143. Text #5
  144. ID : 9
  145. Format : PGS
  146. Muxing mode : zlib
  147. Codec ID : S_HDMV/PGS
  148. Codec ID/Info : Picture based subtitle format used on BDs/HD-DVDs
  149. Duration : 1 h 9 min
  150. Bit rate : 16.4 kb/s
  151. Count of elements : 1160
  152. Stream size : 8.11 MiB (0%)
  153. Title : Japanese
  154. Language : Japanese
  155. Default : No
  156. Forced : No

  157. Text #6
  158. ID : 10
  159. Format : PGS
  160. Muxing mode : zlib
  161. Codec ID : S_HDMV/PGS
  162. Codec ID/Info : Picture based subtitle format used on BDs/HD-DVDs
  163. Duration : 1 h 10 min
  164. Bit rate : 25.5 kb/s
  165. Count of elements : 1189
  166. Stream size : 12.8 MiB (0%)
  167. Title : German
  168. Language : German
  169. Default : No
  170. Forced : No

  171. Text #7
  172. ID : 11
  173. Format : PGS
  174. Muxing mode : zlib
  175. Codec ID : S_HDMV/PGS
  176. Codec ID/Info : Picture based subtitle format used on BDs/HD-DVDs
  177. Duration : 1 h 10 min
  178. Bit rate : 24.4 kb/s
  179. Count of elements : 1188
  180. Stream size : 12.2 MiB (0%)
  181. Title : Italian
  182. Language : Italian
  183. Default : No
  184. Forced : No

  185. Text #8
  186. ID : 12
  187. Format : PGS
  188. Muxing mode : zlib
  189. Codec ID : S_HDMV/PGS
  190. Codec ID/Info : Picture based subtitle format used on BDs/HD-DVDs
  191. Duration : 1 h 10 min
  192. Bit rate : 23.0 kb/s
  193. Count of elements : 955
  194. Stream size : 11.5 MiB (0%)
  195. Title : Dutch
  196. Language : Dutch
  197. Default : No
  198. Forced : No

  199. Text #9
  200. ID : 13
  201. Format : PGS
  202. Muxing mode : zlib
  203. Codec ID : S_HDMV/PGS
  204. Codec ID/Info : Picture based subtitle format used on BDs/HD-DVDs
  205. Duration : 1 h 10 min
  206. Bit rate : 25.0 kb/s
  207. Count of elements : 1189
  208. Stream size : 12.5 MiB (0%)
  209. Title : Danish
  210. Language : Danish
  211. Default : No
  212. Forced : No

  213. Text #10
  214. ID : 14
  215. Format : PGS
  216. Muxing mode : zlib
  217. Codec ID : S_HDMV/PGS
  218. Codec ID/Info : Picture based subtitle format used on BDs/HD-DVDs
  219. Duration : 1 h 10 min
  220. Bit rate : 25.2 kb/s
  221. Count of elements : 1189
  222. Stream size : 12.6 MiB (0%)
  223. Title : Finnish
  224. Language : Finnish
  225. Default : No
  226. Forced : No

  227. Text #11
  228. ID : 15
  229. Format : PGS
  230. Muxing mode : zlib
  231. Codec ID : S_HDMV/PGS
  232. Codec ID/Info : Picture based subtitle format used on BDs/HD-DVDs
  233. Duration : 1 h 10 min
  234. Bit rate : 24.4 kb/s
  235. Count of elements : 1187
  236. Stream size : 12.2 MiB (0%)
  237. Title : Norwegian
  238. Language : Norwegian
  239. Default : No
  240. Forced : No

  241. Text #12
  242. ID : 16
  243. Format : PGS
  244. Muxing mode : zlib
  245. Codec ID : S_HDMV/PGS
  246. Codec ID/Info : Picture based subtitle format used on BDs/HD-DVDs
  247. Duration : 1 h 10 min
  248. Bit rate : 25.1 kb/s
  249. Count of elements : 1322
  250. Stream size : 12.6 MiB (0%)
  251. Title : Swedish
  252. Language : Swedish
  253. Default : No
  254. Forced : No

  255. Text #13
  256. ID : 17
  257. Format : PGS
  258. Muxing mode : zlib
  259. Codec ID : S_HDMV/PGS
  260. Codec ID/Info : Picture based subtitle format used on BDs/HD-DVDs
  261. Duration : 1 h 9 min
  262. Bit rate : 24.0 kb/s
  263. Count of elements : 1362
  264. Stream size : 12.0 MiB (0%)
  265. Title : Chinese
  266. Language : Chinese
  267. Default : No
  268. Forced : No

  269. Text #14
  270. ID : 18
  271. Format : PGS
  272. Muxing mode : zlib
  273. Codec ID : S_HDMV/PGS
  274. Codec ID/Info : Picture based subtitle format used on BDs/HD-DVDs
  275. Duration : 1 h 9 min
  276. Bit rate : 75.9 kb/s
  277. Count of elements : 2134
  278. Stream size : 37.8 MiB (0%)
  279. Title : Commentary 1
  280. Language : English
  281. Default : No
  282. Forced : No

  283. Text #15
  284. ID : 19
  285. Format : PGS
  286. Muxing mode : zlib
  287. Codec ID : S_HDMV/PGS
  288. Codec ID/Info : Picture based subtitle format used on BDs/HD-DVDs
  289. Duration : 1 h 10 min
  290. Bit rate : 60.3 kb/s
  291. Count of elements : 1966
  292. Stream size : 30.2 MiB (0%)
  293. Title : French
  294. Language : French
  295. Default : No
  296. Forced : No

  297. Text #16
  298. ID : 20
  299. Format : PGS
  300. Muxing mode : zlib
  301. Codec ID : S_HDMV/PGS
  302. Codec ID/Info : Picture based subtitle format used on BDs/HD-DVDs
  303. Duration : 1 h 10 min
  304. Bit rate : 67.3 kb/s
  305. Count of elements : 1954
  306. Stream size : 33.8 MiB (0%)
  307. Title : Spanish
  308. Language : Spanish
  309. Default : No
  310. Forced : No

  311. Text #17
  312. ID : 21
  313. Format : PGS
  314. Muxing mode : zlib
  315. Codec ID : S_HDMV/PGS
  316. Codec ID/Info : Picture based subtitle format used on BDs/HD-DVDs
  317. Duration : 1 h 9 min
  318. Bit rate : 44.9 kb/s
  319. Count of elements : 1676
  320. Stream size : 22.4 MiB (0%)
  321. Title : Japanese
  322. Language : Japanese
  323. Default : No
  324. Forced : No

  325. Text #18
  326. ID : 22
  327. Format : PGS
  328. Muxing mode : zlib
  329. Codec ID : S_HDMV/PGS
  330. Codec ID/Info : Picture based subtitle format used on BDs/HD-DVDs
  331. Duration : 1 h 10 min
  332. Bit rate : 67.7 kb/s
  333. Count of elements : 1946
  334. Stream size : 33.9 MiB (0%)
  335. Title : German
  336. Language : German
  337. Default : No
  338. Forced : No

  339. Text #19
  340. ID : 23
  341. Format : PGS
  342. Muxing mode : zlib
  343. Codec ID : S_HDMV/PGS
  344. Codec ID/Info : Picture based subtitle format used on BDs/HD-DVDs
  345. Duration : 1 h 10 min
  346. Bit rate : 68.5 kb/s
  347. Count of elements : 1966
  348. Stream size : 34.3 MiB (0%)
  349. Title : Italian
  350. Language : Italian
  351. Default : No
  352. Forced : No

  353. Text #20
  354. ID : 24
  355. Format : PGS
  356. Muxing mode : zlib
  357. Codec ID : S_HDMV/PGS
  358. Codec ID/Info : Picture based subtitle format used on BDs/HD-DVDs
  359. Duration : 1 h 9 min
  360. Bit rate : 92.3 kb/s
  361. Count of elements : 2775
  362. Stream size : 46.2 MiB (0%)
  363. Title : Commentary 2
  364. Language : English
  365. Default : No
  366. Forced : No

  367. Text #21
  368. ID : 25
  369. Format : PGS
  370. Muxing mode : zlib
  371. Codec ID : S_HDMV/PGS
  372. Codec ID/Info : Picture based subtitle format used on BDs/HD-DVDs
  373. Duration : 1 h 10 min
  374. Bit rate : 80.8 kb/s
  375. Count of elements : 2708
  376. Stream size : 40.6 MiB (0%)
  377. Title : French
  378. Language : French
  379. Default : No
  380. Forced : No

  381. Text #22
  382. ID : 26
  383. Format : PGS
  384. Muxing mode : zlib
  385. Codec ID : S_HDMV/PGS
  386. Codec ID/Info : Picture based subtitle format used on BDs/HD-DVDs
  387. Duration : 1 h 10 min
  388. Bit rate : 85.5 kb/s
  389. Count of elements : 2712
  390. Stream size : 42.9 MiB (0%)
  391. Title : Spanish
  392. Language : Spanish
  393. Default : No
  394. Forced : No

  395. Text #23
  396. ID : 27
  397. Format : PGS
  398. Muxing mode : zlib
  399. Codec ID : S_HDMV/PGS
  400. Codec ID/Info : Picture based subtitle format used on BDs/HD-DVDs
  401. Duration : 1 h 9 min
  402. Bit rate : 46.0 kb/s
  403. Count of elements : 1782
  404. Stream size : 23.0 MiB (0%)
  405. Title : Japanese
  406. Language : Japanese
  407. Default : No
  408. Forced : No

  409. Text #24
  410. ID : 28
  411. Format : PGS
  412. Muxing mode : zlib
  413. Codec ID : S_HDMV/PGS
  414. Codec ID/Info : Picture based subtitle format used on BDs/HD-DVDs
  415. Duration : 1 h 10 min
  416. Bit rate : 89.5 kb/s
  417. Count of elements : 2712
  418. Stream size : 44.9 MiB (0%)
  419. Title : German
  420. Language : German
  421. Default : No
  422. Forced : No

  423. Text #25
  424. ID : 29
  425. Format : PGS
  426. Muxing mode : zlib
  427. Codec ID : S_HDMV/PGS
  428. Codec ID/Info : Picture based subtitle format used on BDs/HD-DVDs
  429. Duration : 1 h 10 min
  430. Bit rate : 80.6 kb/s
  431. Count of elements : 2712
  432. Stream size : 40.4 MiB (0%)
  433. Title : Italian
  434. Language : Italian
  435. Default : No
  436. Forced : No

  437. Text #26
  438. ID : 30
  439. Format : PGS
  440. Muxing mode : zlib
  441. Codec ID : S_HDMV/PGS
  442. Codec ID/Info : Picture based subtitle format used on BDs/HD-DVDs
  443. Duration : 1 h 9 min
  444. Bit rate : 24.8 kb/s
  445. Count of elements : 324
  446. Stream size : 12.3 MiB (0%)
  447. Title : English
  448. Language : English
  449. Default : No
  450. Forced : No

  451. Text #27
  452. ID : 31
  453. Format : PGS
  454. Muxing mode : zlib
  455. Codec ID : S_HDMV/PGS
  456. Codec ID/Info : Picture based subtitle format used on BDs/HD-DVDs
  457. Duration : 1 h 10 min
  458. Bit rate : 24.1 kb/s
  459. Count of elements : 324
  460. Stream size : 12.1 MiB (0%)
  461. Title : French
  462. Language : French
  463. Default : No
  464. Forced : No

  465. Text #28
  466. ID : 32
  467. Format : PGS
  468. Muxing mode : zlib
  469. Codec ID : S_HDMV/PGS
  470. Codec ID/Info : Picture based subtitle format used on BDs/HD-DVDs
  471. Duration : 1 h 10 min
  472. Bit rate : 25.2 kb/s
  473. Count of elements : 324
  474. Stream size : 12.6 MiB (0%)
  475. Title : Spanish
  476. Language : Spanish
  477. Default : No
  478. Forced : No

  479. Text #29
  480. ID : 33
  481. Format : PGS
  482. Muxing mode : zlib
  483. Codec ID : S_HDMV/PGS
  484. Codec ID/Info : Picture based subtitle format used on BDs/HD-DVDs
  485. Duration : 1 h 10 min
  486. Bit rate : 26.6 kb/s
  487. Count of elements : 324
  488. Stream size : 13.4 MiB (0%)
  489. Title : German
  490. Language : German
  491. Default : No
  492. Forced : No

  493. Text #30
  494. ID : 34
  495. Format : PGS
  496. Muxing mode : zlib
  497. Codec ID : S_HDMV/PGS
  498. Codec ID/Info : Picture based subtitle format used on BDs/HD-DVDs
  499. Duration : 1 h 10 min
  500. Bit rate : 23.6 kb/s
  501. Count of elements : 324
  502. Stream size : 11.9 MiB (0%)
  503. Title : Italian
  504. Language : Italian
  505. Default : No
  506. Forced : No

  507. Menu
  508. 00:00:00.000 : Chapter 01
  509. 00:02:03.248 : Chapter 02
  510. 00:06:40.692 : Chapter 03
  511. 00:14:09.640 : Chapter 04
  512. 00:18:29.400 : Chapter 05
  513. 00:23:00.629 : Chapter 06
  514. 00:30:48.597 : Chapter 07
  515. 00:34:22.352 : Chapter 08
  516. 00:35:21.411 : Chapter 09
  517. 00:42:00.476 : Chapter 10
  518. 00:47:53.746 : Chapter 11
  519. 00:53:41.343 : Chapter 12
  520. 00:58:16.410 : Chapter 13
  521. 01:03:50.368 : Chapter 14
  522. 01:05:57.036 : Chapter 15
  523. 01:07:57.073 : Chapter 16
  524. 01:10:11.582 : Chapter 17
复制代码




                                       
                                       

                                       
                                       
                                       




回复

使用道具 举报

蓝光币
469
发表于 4 天前 | 显示全部楼层
不错,收下了。
回复 支持 反对

使用道具 举报

懒得打字嘛,点击右侧快捷回复 【右侧内容,后台自定义】
您需要登录后才可以回帖 登录 | 立即加入

本版积分规则

Archiver|小黑屋| 蓝光电影网 |网站地图

Copyright © 2021 Comsenz Inc. Powered by 蓝光电影网

蓝光电影网

本站内容由用户自主分享和转载自互联网,转载目的在于传递更多信息,并不代表本网赞同其观点和对其真实性负责。

如有侵权、违反国家法律政策行为,请联系我们,我们会第一时间及时清除和处理!

举报反馈邮箱:[email protected]

快速回复 返回顶部 返回列表