找回密码

蓝光电影网

查看: 118|回复: 0

[10bit.SDR] 情枭的黎明/卡利托之路 Carlitos.Way.1993.2160p.BluRay.x265.10bit.SDR.DTS-X.7.1-SWTYBLZ 53.86GB

[复制链接]
蓝光币
511
发表于 6 天前 | 显示全部楼层 |阅读模式


◎译  名 情枭的拂晓/卡利托之路/卡利托的方式/角头风云(台)
◎片  名 Carlito's Way
◎年  代 1993
◎产  地 美国
◎类  别 剧情 / 惊悚 / 犯罪
◎语  言 英语,西班牙语
◎上映日期 1993-11-10
◎豆瓣评分 8.7/10 from 35075 users
◎豆瓣链接 https://movie.douban.com/subject/1292646/
◎片  长 144 分钟
◎导  演 布莱恩·德·帕尔玛 Brian De Palma
◎编  剧 大卫·凯普 David Koepp
◎主  演 阿尔·帕西诺 Al Pacino
       西恩·潘 Sean Penn
       佩内洛普·安·米勒 Penelope Ann Miller
       约翰·雷吉扎莫 John Leguizamo
       维果·莫腾森 Viggo Mortensen
       詹姆斯·瑞布霍恩 James Rebhorn
       亚德里安·帕斯达 Adrian Pasdar
       路易斯·古兹曼 Luis Guzmán
       英格丽德·罗杰斯 Ingrid Rogers
       Daniel Margotta Daniel Margotta
       约翰·霍伊特 John Hoyt
       Dan Brennan Dan Brennan
◎标  签 阿尔·帕西诺 | 黑帮 | 犯罪 | 美国 | AlPacino | 美国电影 | 1993 | 剧情
◎简  介


  卡利多(阿尔?帕西诺 Al Pacino 饰)因贩毒而被判入狱30年,在他入狱的第五年,律师大卫(西恩?潘 Sean Penn  饰)将他从牢狱救了出来。卡利多出狱后的理想就是赚够7万5千美圆分开这里和还清欠大卫的人情。决心洗心革面的卡利多却摆脱不了命运的玩弄,当他勉为其难地答应表弟作为旁观者加入一次毒品买卖,他卷入了一场黑吃黑的活动。当他保住了毒品后,他从毒贩那边获得了2万5千美圆作为报酬。
  
  卡利多将这笔钱入股到一家名为天堂乐园的夜总会后,他起头寻觅他的女人,凯尔。当卡利多找到凯尔后,两人的关系在奥妙中盘旋。这时,大卫收了一位黑手党首领的钱,答应帮助他的伙伴逃狱。因而,大卫找来了卡利多帮手。虽然凯尔苦苦请求,为了报恩,卡利多还是答应了去履行这一危险使命……
◎获奖情况
  第51届金球奖 ?(1994)
  电影类最好男配角(提名) 西恩·潘
  电影类最好女配角(提名) 佩内洛普·安·米勒
  1. Video
  2. ID                                       : 1
  3. Format                                   : HEVC
  4. Format/Info                              : High Efficiency Video Coding
  5. Format profile                           : Main [email protected]@High
  6. Codec ID                                 : V_MPEGH/ISO/HEVC
  7. Duration                                 : 2 h 24 min
  8. Bit rate                                 : 49.1 Mb/s
  9. Width                                    : 3 840 pixels
  10. Height                                   : 1 632 pixels
  11. Display aspect ratio                     : 2.35:1
  12. Frame rate mode                          : Constant
  13. Frame rate                               : 23.976 (24000/1001/189150) FPS
  14. Color space                              : YUV
  15. Chroma subsampling                       : 4:2:0
  16. Bit depth                                : 10 bits
  17. Bits/(Pixel*Frame)                       : 0.327
  18. Stream size                              : 49.4 GiB (92%)
  19. Writing library                          : x265 3.0ed72af837053:[Windows][GCC 8.2.0][64 bit] 10bit
  20. Encoding settings                        : cpuid=1111039 / frame-threads=6 / numa-pools=40 / wpp / no-pmode / no-pme / no-psnr / no-ssim / log-level=2 / input-csp=1 / input-res=3840x1632 / interlace=0 / total-frames=207241 / level-idc=51 / high-tier=1 / uhd-bd=0 / ref=3 / no-allow-non-conformance / repeat-headers / annexb / aud / hrd / info / hash=0 / no-temporal-layers / no-open-gop / min-keyint=1 / keyint=24 / gop-lookahead=0 / bframes=4 / b-adapt=2 / b-pyramid / bframe-bias=0 / rc-lookahead=25 / lookahead-slices=4 / scenecut=40 / radl=0 / no-splice / no-intra-refresh / ctu=64 / min-cu-size=8 / no-rect / no-amp / max-tu-size=32 / tu-inter-depth=1 / tu-intra-depth=1 / limit-tu=0 / rdoq-level=0 / dynamic-rd=0.00 / no-ssim-rd / signhide / no-tskip / nr-intra=0 / nr-inter=0 / no-constrained-intra / strong-intra-smoothing / max-merge=2 / limit-refs=3 / no-limit-modes / me=1 / subme=2 / merange=57 / temporal-mvp / weightp / no-weightb / no-analyze-src-pics / deblock=0:0 / no-sao / no-sao-non-deblock / rd=3 / no-early-skip / rskip / no-fast-intra / no-tskip-fast / no-cu-lossless / no-b-intra / no-splitrd-skip / rdpenalty=0 / psy-rd=2.00 / psy-rdoq=0.00 / no-rd-refine / no-lossless / cbqpoffs=0 / crqpoffs=0 / rc=crf / crf=20.0 / qcomp=0.60 / qpstep=4 / stats-write=0 / stats-read=0 / vbv-maxrate=160000 / vbv-bufsize=160000 / vbv-init=0.9 / crf-max=0.0 / crf-min=0.0 / ipratio=1.40 / pbratio=1.30 / aq-mode=1 / aq-strength=1.00 / cutree / zone-count=0 / no-strict-cbr / qg-size=32 / no-rc-grain / qpmax=69 / qpmin=0 / no-const-vbv / sar=1 / overscan=0 / videoformat=5 / range=0 / colorprim=2 / transfer=2 / colormatrix=2 / chromaloc=0 / display-window=0 / max-cll=0,0 / min-luma=0 / max-luma=1023 / log2-max-poc-lsb=8 / vui-timing-info / vui-hrd-info / slices=1 / opt-qp-pps / opt-ref-list-length-pps / no-multi-pass-opt-rps / scenecut-bias=0.05 / no-opt-cu-delta-qp / no-aq-motion / no-hdr / no-hdr-opt / no-dhdr10-opt / no-idr-recovery-sei / analysis-reuse-level=5 / scale-factor=0 / refine-intra=0 / refine-inter=0 / refine-mv=0 / refine-ctu-distortion=0 / no-limit-sao / ctu-info=0 / no-lowpass-dct / refine-analysis-type=0 / copy-pic=1 / max-ausize-factor=1.0 / no-dynamic-refine / no-single-sei / no-hevc-aq / qp-adaptation-range=1.00
  21. Default                                  : Yes
  22. Forced                                   : No

  23. Audio #1
  24. ID                                       : 2
  25. ID in the original source medium         : 4352 (0x1100)
  26. Format                                   : DTS XLL X
  27. Format/Info                              : Digital Theater Systems
  28. Commercial name                          : DTS-HD Master Audio
  29. Codec ID                                 : A_DTS
  30. Duration                                 : 2 h 24 min
  31. Bit rate mode                            : Variable
  32. Bit rate                                 : 3 452 kb/s
  33. Channel(s)                               : 8 channels
  34. Channel(s)_Original                      : Object Based
  35. ChannelLayout_Original                   : Object Based
  36. Sampling rate                            : 48.0 kHz
  37. Frame rate                               : 93.750 FPS (512 SPF)
  38. Bit depth                                : 24 bits
  39. Stream size                              : 3.47 GiB (6%)
  40. Title                                    : DTS-X 7.1
  41. Language                                 : English
  42. Default                                  : Yes
  43. Forced                                   : No
  44. Original source medium                   : Blu-ray

  45. Audio #2
  46. ID                                       : 3
  47. Format                                   : AC-3
  48. Format/Info                              : Audio Coding 3
  49. Commercial name                          : Dolby Digital
  50. Codec ID                                 : A_AC3
  51. Duration                                 : 2 h 24 min
  52. Bit rate mode                            : Constant
  53. Bit rate                                 : 640 kb/s
  54. Channel(s)                               : 6 channels
  55. Channel layout                           : L R C LFE Ls Rs
  56. Sampling rate                            : 48.0 kHz
  57. Frame rate                               : 31.250 FPS (1536 SPF)
  58. Compression mode                         : Lossy
  59. Stream size                              : 659 MiB (1%)
  60. Title                                    : DD 5.1
  61. Language                                 : English
  62. Service kind                             : Complete Main
  63. Default                                  : No
  64. Forced                                   : No

  65. Text #1
  66. ID                                       : 4
  67. Format                                   : UTF-8
  68. Codec ID                                 : S_TEXT/UTF8
  69. Codec ID/Info                            : UTF-8 Plain Text
  70. Duration                                 : 2 h 15 min
  71. Bit rate                                 : 60 b/s
  72. Count of elements                        : 1546
  73. Stream size                              : 59.8 KiB (0%)
  74. Title                                    : SRT
  75. Language                                 : English
  76. Default                                  : Yes
  77. Forced                                   : No

  78. Text #2
  79. ID                                       : 5
  80. ID in the original source medium         : 4768 (0x12A0)
  81. Format                                   : PGS
  82. Muxing mode                              : zlib
  83. Codec ID                                 : S_HDMV/PGS
  84. Codec ID/Info                            : Picture based subtitle format used on BDs/HD-DVDs
  85. Duration                                 : 2 h 18 min
  86. Bit rate                                 : 38.2 kb/s
  87. Count of elements                        : 3224
  88. Stream size                              : 37.8 MiB (0%)
  89. Language                                 : English
  90. Default                                  : No
  91. Forced                                   : No
  92. Original source medium                   : Blu-ray

  93. Text #3
  94. ID                                       : 6
  95. ID in the original source medium         : 4769 (0x12A1)
  96. Format                                   : PGS
  97. Muxing mode                              : zlib
  98. Codec ID                                 : S_HDMV/PGS
  99. Codec ID/Info                            : Picture based subtitle format used on BDs/HD-DVDs
  100. Duration                                 : 2 h 15 min
  101. Bit rate                                 : 25.2 kb/s
  102. Count of elements                        : 3164
  103. Stream size                              : 24.4 MiB (0%)
  104. Language                                 : Japanese
  105. Default                                  : No
  106. Forced                                   : No
  107. Original source medium                   : Blu-ray

  108. Text #4
  109. ID                                       : 7
  110. ID in the original source medium         : 4770 (0x12A2)
  111. Format                                   : PGS
  112. Muxing mode                              : zlib
  113. Codec ID                                 : S_HDMV/PGS
  114. Codec ID/Info                            : Picture based subtitle format used on BDs/HD-DVDs
  115. Duration                                 : 2 h 20 min
  116. Bit rate                                 : 34.2 kb/s
  117. Count of elements                        : 3122
  118. Stream size                              : 34.3 MiB (0%)
  119. Language                                 : French
  120. Default                                  : No
  121. Forced                                   : No
  122. Original source medium                   : Blu-ray

  123. Text #5
  124. ID                                       : 8
  125. ID in the original source medium         : 4771 (0x12A3)
  126. Format                                   : PGS
  127. Muxing mode                              : zlib
  128. Codec ID                                 : S_HDMV/PGS
  129. Codec ID/Info                            : Picture based subtitle format used on BDs/HD-DVDs
  130. Duration                                 : 2 h 20 min
  131. Bit rate                                 : 35.4 kb/s
  132. Count of elements                        : 3108
  133. Stream size                              : 35.5 MiB (0%)
  134. Language                                 : Spanish
  135. Default                                  : No
  136. Forced                                   : No
  137. Original source medium                   : Blu-ray

  138. Text #6
  139. ID                                       : 9
  140. ID in the original source medium         : 4772 (0x12A4)
  141. Format                                   : PGS
  142. Muxing mode                              : zlib
  143. Codec ID                                 : S_HDMV/PGS
  144. Codec ID/Info                            : Picture based subtitle format used on BDs/HD-DVDs
  145. Duration                                 : 2 h 20 min
  146. Bit rate                                 : 36.2 kb/s
  147. Count of elements                        : 3136
  148. Stream size                              : 36.3 MiB (0%)
  149. Language                                 : Danish
  150. Default                                  : No
  151. Forced                                   : No
  152. Original source medium                   : Blu-ray

  153. Text #7
  154. ID                                       : 10
  155. ID in the original source medium         : 4773 (0x12A5)
  156. Format                                   : PGS
  157. Muxing mode                              : zlib
  158. Codec ID                                 : S_HDMV/PGS
  159. Codec ID/Info                            : Picture based subtitle format used on BDs/HD-DVDs
  160. Duration                                 : 2 h 20 min
  161. Bit rate                                 : 31.3 kb/s
  162. Count of elements                        : 3046
  163. Stream size                              : 31.4 MiB (0%)
  164. Language                                 : Finnish
  165. Default                                  : No
  166. Forced                                   : No
  167. Original source medium                   : Blu-ray

  168. Text #8
  169. ID                                       : 11
  170. ID in the original source medium         : 4774 (0x12A6)
  171. Format                                   : PGS
  172. Muxing mode                              : zlib
  173. Codec ID                                 : S_HDMV/PGS
  174. Codec ID/Info                            : Picture based subtitle format used on BDs/HD-DVDs
  175. Duration                                 : 2 h 20 min
  176. Bit rate                                 : 33.9 kb/s
  177. Count of elements                        : 3112
  178. Stream size                              : 34.0 MiB (0%)
  179. Language                                 : Norwegian
  180. Default                                  : No
  181. Forced                                   : No
  182. Original source medium                   : Blu-ray

  183. Text #9
  184. ID                                       : 12
  185. ID in the original source medium         : 4775 (0x12A7)
  186. Format                                   : PGS
  187. Muxing mode                              : zlib
  188. Codec ID                                 : S_HDMV/PGS
  189. Codec ID/Info                            : Picture based subtitle format used on BDs/HD-DVDs
  190. Duration                                 : 2 h 20 min
  191. Bit rate                                 : 28.8 kb/s
  192. Count of elements                        : 3038
  193. Stream size                              : 28.9 MiB (0%)
  194. Language                                 : Swedish
  195. Default                                  : No
  196. Forced                                   : No
  197. Original source medium                   : Blu-ray

  198. Text #10
  199. ID                                       : 13
  200. ID in the original source medium         : 4776 (0x12A8)
  201. Format                                   : PGS
  202. Muxing mode                              : zlib
  203. Codec ID                                 : S_HDMV/PGS
  204. Codec ID/Info                            : Picture based subtitle format used on BDs/HD-DVDs
  205. Duration                                 : 2 h 20 min
  206. Bit rate                                 : 31.0 kb/s
  207. Count of elements                        : 3552
  208. Stream size                              : 31.1 MiB (0%)
  209. Language                                 : Thai
  210. Default                                  : No
  211. Forced                                   : No
  212. Original source medium                   : Blu-ray

  213. Text #11
  214. ID                                       : 14
  215. ID in the original source medium         : 4777 (0x12A9)
  216. Format                                   : PGS
  217. Muxing mode                              : zlib
  218. Codec ID                                 : S_HDMV/PGS
  219. Codec ID/Info                            : Picture based subtitle format used on BDs/HD-DVDs
  220. Duration                                 : 2 h 20 min
  221. Bit rate                                 : 26.7 kb/s
  222. Count of elements                        : 3134
  223. Stream size                              : 26.8 MiB (0%)
  224. Language                                 : Chinese
  225. Default                                  : No
  226. Forced                                   : No
  227. Original source medium                   : Blu-ray

  228. Text #12
  229. ID                                       : 15
  230. ID in the original source medium         : 4778 (0x12AA)
  231. Format                                   : PGS
  232. Muxing mode                              : zlib
  233. Codec ID                                 : S_HDMV/PGS
  234. Codec ID/Info                            : Picture based subtitle format used on BDs/HD-DVDs
  235. Duration                                 : 2 h 20 min
  236. Bit rate                                 : 24.9 kb/s
  237. Count of elements                        : 3052
  238. Stream size                              : 24.9 MiB (0%)
  239. Language                                 : Chinese
  240. Default                                  : No
  241. Forced                                   : No
  242. Original source medium                   : Blu-ray

  243. Text #13
  244. ID                                       : 16
  245. ID in the original source medium         : 4779 (0x12AB)
  246. Format                                   : PGS
  247. Muxing mode                              : zlib
  248. Codec ID                                 : S_HDMV/PGS
  249. Codec ID/Info                            : Picture based subtitle format used on BDs/HD-DVDs
  250. Duration                                 : 2 h 22 min
  251. Bit rate                                 : 19.7 kb/s
  252. Count of elements                        : 3214
  253. Stream size                              : 20.1 MiB (0%)
  254. Language                                 : Korean
  255. Default                                  : No
  256. Forced                                   : No
  257. Original source medium                   : Blu-ray

  258. Menu
  259. 00:00:00.000                             : Chapter 01
  260. 00:05:03.469                             : Chapter 02
  261. 00:17:43.312                             : Chapter 03
  262. 00:27:41.409                             : Chapter 04
  263. 00:32:02.587                             : Chapter 05
  264. 00:36:36.527                             : Chapter 06
  265. 00:45:26.557                             : Chapter 07
  266. 00:50:38.618                             : Chapter 08
  267. 00:58:40.517                             : Chapter 09
  268. 01:03:34.143                             : Chapter 10
  269. 01:11:44.258                             : Chapter 11
  270. 01:17:28.101                             : Chapter 12
  271. 01:24:46.915                             : Chapter 13
  272. 01:33:48.748                             : Chapter 14
  273. 01:45:23.025                             : Chapter 15
  274. 01:52:32.245                             : Chapter 16
  275. 01:57:40.470                             : Chapter 17
  276. 02:03:30.986                             : Chapter 18
  277. 02:14:01.366                             : Chapter 19
  278. 02:19:06.963                             : Chapter 20
复制代码











                                       
                                       

                                       
                                       
                                       




回复

使用道具 举报

懒得打字嘛,点击右侧快捷回复 【右侧内容,后台自定义】
您需要登录后才可以回帖 登录 | 立即加入

本版积分规则

Archiver|小黑屋| 蓝光电影网 |网站地图

Copyright © 2021 Comsenz Inc. Powered by 蓝光电影网

蓝光电影网

本站内容由用户自主分享和转载自互联网,转载目的在于传递更多信息,并不代表本网赞同其观点和对其真实性负责。

如有侵权、违反国家法律政策行为,请联系我们,我们会第一时间及时清除和处理!

举报反馈邮箱:[email protected]

快速回复 返回顶部 返回列表