找回密码

蓝光电影网

查看: 129|回复: 2

[8bit.SDR] 情枭的黎明/卡利托之路 Carlitos.Way.1993.2160p.BluRay.x264.8bit.SDR.DTS-X.7.1-SWTYBLZ 54.83GB

[复制链接]
蓝光币
511
发表于 5 天前 | 显示全部楼层 |阅读模式


◎译  名 情枭的拂晓/卡利托之路/卡利托的方式/角头风云(台)
◎片  名 Carlito's Way
◎年  代 1993
◎产  地 美国
◎类  别 剧情 / 惊悚 / 犯罪
◎语  言 英语,西班牙语
◎上映日期 1993-11-10
◎豆瓣评分 8.7/10 from 35092 users
◎豆瓣链接 https://movie.douban.com/subject/1292646/
◎片  长 144 分钟
◎导  演 布莱恩·德·帕尔玛 Brian De Palma
◎编  剧 大卫·凯普 David Koepp
◎主  演 阿尔·帕西诺 Al Pacino
       西恩·潘 Sean Penn
       佩内洛普·安·米勒 Penelope Ann Miller
       约翰·雷吉扎莫 John Leguizamo
       维果·莫腾森 Viggo Mortensen
       詹姆斯·瑞布霍恩 James Rebhorn
       亚德里安·帕斯达 Adrian Pasdar
       路易斯·古兹曼 Luis Guzmán
       英格丽德·罗杰斯 Ingrid Rogers
       Daniel Margotta Daniel Margotta
       约翰·霍伊特 John Hoyt
       Dan Brennan Dan Brennan
◎标  签 阿尔·帕西诺 | 黑帮 | 犯罪 | 美国 | AlPacino | 美国电影 | 1993 | 剧情
◎简  介


  卡利多(阿尔?帕西诺 Al Pacino 饰)因贩毒而被判入狱30年,在他入狱的第五年,律师大卫(西恩?潘 Sean Penn  饰)将他从牢狱救了出来。卡利多出狱后的理想就是赚够7万5千美圆分开这里和还清欠大卫的人情。决心洗心革面的卡利多却摆脱不了命运的玩弄,当他勉为其难地答应表弟作为旁观者加入一次毒品买卖,他卷入了一场黑吃黑的活动。当他保住了毒品后,他从毒贩那边获得了2万5千美圆作为报酬。
  
  卡利多将这笔钱入股到一家名为天堂乐园的夜总会后,他起头寻觅他的女人,凯尔。当卡利多找到凯尔后,两人的关系在奥妙中盘旋。这时,大卫收了一位黑手党首领的钱,答应帮助他的伙伴逃狱。因而,大卫找来了卡利多帮手。虽然凯尔苦苦请求,为了报恩,卡利多还是答应了去履行这一危险使命……
◎获奖情况
  第51届金球奖 ?(1994)
  电影类最好男配角(提名) 西恩·潘
  电影类最好女配角(提名) 佩内洛普·安·米勒
  1. Video
  2. ID                                       : 1
  3. Format                                   : AVC
  4. Format/Info                              : Advanced Video Codec
  5. Format profile                           : [email protected]
  6. Format settings                          : CABAC / 5 Ref Frames
  7. Format settings, CABAC                   : Yes
  8. Format settings, Reference frames        : 5 frames
  9. Codec ID                                 : V_MPEG4/ISO/AVC
  10. Duration                                 : 2 h 24 min
  11. Bit rate                                 : 50.1 Mb/s
  12. Width                                    : 3 840 pixels
  13. Height                                   : 1 632 pixels
  14. Display aspect ratio                     : 2.35:1
  15. Frame rate mode                          : Constant
  16. Frame rate                               : 23.976 (24000/1001/189150) FPS
  17. Color space                              : YUV
  18. Chroma subsampling                       : 4:2:0
  19. Bit depth                                : 8 bits
  20. Scan type                                : Progressive
  21. Bits/(Pixel*Frame)                       : 0.333
  22. Stream size                              : 50.4 GiB (92%)
  23. Writing library                          : x264 core 157 r2935 545de2f
  24. Encoding settings                        : cabac=1 / ref=5 / deblock=1:-1:-1 / analyse=0x3:0x113 / me=umh / subme=10 / psy=1 / psy_rd=1.00:0.15 / mixed_ref=1 / me_range=48 / chroma_me=1 / trellis=2 / 8x8dct=1 / cqm=0 / deadzone=21,11 / fast_pskip=1 / chroma_qp_offset=-3 / threads=48 / lookahead_threads=4 / sliced_threads=0 / nr=0 / decimate=0 / interlaced=0 / bluray_compat=0 / constrained_intra=0 / bframes=3 / b_pyramid=2 / b_adapt=2 / b_bias=0 / direct=3 / weightb=1 / open_gop=0 / weightp=2 / keyint=250 / keyint_min=23 / scenecut=40 / intra_refresh=0 / rc_lookahead=50 / rc=crf / mbtree=1 / crf=22.0 / qcomp=0.60 / qpmin=0 / qpmax=69 / qpstep=4 / ip_ratio=1.40 / aq=1:1.00
  25. Default                                  : Yes
  26. Forced                                   : No

  27. Audio #1
  28. ID                                       : 2
  29. ID in the original source medium         : 4352 (0x1100)
  30. Format                                   : DTS XLL X
  31. Format/Info                              : Digital Theater Systems
  32. Commercial name                          : DTS-HD Master Audio
  33. Codec ID                                 : A_DTS
  34. Duration                                 : 2 h 24 min
  35. Bit rate mode                            : Variable
  36. Bit rate                                 : 3 452 kb/s
  37. Channel(s)                               : 8 channels
  38. Channel(s)_Original                      : Object Based
  39. ChannelLayout_Original                   : Object Based
  40. Sampling rate                            : 48.0 kHz
  41. Frame rate                               : 93.750 FPS (512 SPF)
  42. Bit depth                                : 24 bits
  43. Stream size                              : 3.47 GiB (6%)
  44. Title                                    : DTS-X 7.1
  45. Language                                 : English
  46. Default                                  : Yes
  47. Forced                                   : No
  48. Original source medium                   : Blu-ray

  49. Audio #2
  50. ID                                       : 3
  51. Format                                   : AC-3
  52. Format/Info                              : Audio Coding 3
  53. Commercial name                          : Dolby Digital
  54. Codec ID                                 : A_AC3
  55. Duration                                 : 2 h 24 min
  56. Bit rate mode                            : Constant
  57. Bit rate                                 : 640 kb/s
  58. Channel(s)                               : 6 channels
  59. Channel layout                           : L R C LFE Ls Rs
  60. Sampling rate                            : 48.0 kHz
  61. Frame rate                               : 31.250 FPS (1536 SPF)
  62. Compression mode                         : Lossy
  63. Stream size                              : 659 MiB (1%)
  64. Title                                    : DD 5.1
  65. Language                                 : English
  66. Service kind                             : Complete Main
  67. Default                                  : No
  68. Forced                                   : No

  69. Text #1
  70. ID                                       : 4
  71. Format                                   : UTF-8
  72. Codec ID                                 : S_TEXT/UTF8
  73. Codec ID/Info                            : UTF-8 Plain Text
  74. Duration                                 : 2 h 15 min
  75. Bit rate                                 : 60 b/s
  76. Count of elements                        : 1546
  77. Stream size                              : 59.8 KiB (0%)
  78. Title                                    : SRT
  79. Language                                 : English
  80. Default                                  : Yes
  81. Forced                                   : No

  82. Text #2
  83. ID                                       : 5
  84. ID in the original source medium         : 4768 (0x12A0)
  85. Format                                   : PGS
  86. Muxing mode                              : zlib
  87. Codec ID                                 : S_HDMV/PGS
  88. Codec ID/Info                            : Picture based subtitle format used on BDs/HD-DVDs
  89. Duration                                 : 2 h 18 min
  90. Bit rate                                 : 38.2 kb/s
  91. Count of elements                        : 3224
  92. Stream size                              : 37.8 MiB (0%)
  93. Language                                 : English
  94. Default                                  : No
  95. Forced                                   : No
  96. Original source medium                   : Blu-ray

  97. Text #3
  98. ID                                       : 6
  99. ID in the original source medium         : 4769 (0x12A1)
  100. Format                                   : PGS
  101. Muxing mode                              : zlib
  102. Codec ID                                 : S_HDMV/PGS
  103. Codec ID/Info                            : Picture based subtitle format used on BDs/HD-DVDs
  104. Duration                                 : 2 h 15 min
  105. Bit rate                                 : 25.2 kb/s
  106. Count of elements                        : 3164
  107. Stream size                              : 24.4 MiB (0%)
  108. Language                                 : Japanese
  109. Default                                  : No
  110. Forced                                   : No
  111. Original source medium                   : Blu-ray

  112. Text #4
  113. ID                                       : 7
  114. ID in the original source medium         : 4770 (0x12A2)
  115. Format                                   : PGS
  116. Muxing mode                              : zlib
  117. Codec ID                                 : S_HDMV/PGS
  118. Codec ID/Info                            : Picture based subtitle format used on BDs/HD-DVDs
  119. Duration                                 : 2 h 20 min
  120. Bit rate                                 : 34.2 kb/s
  121. Count of elements                        : 3122
  122. Stream size                              : 34.3 MiB (0%)
  123. Language                                 : French
  124. Default                                  : No
  125. Forced                                   : No
  126. Original source medium                   : Blu-ray

  127. Text #5
  128. ID                                       : 8
  129. ID in the original source medium         : 4771 (0x12A3)
  130. Format                                   : PGS
  131. Muxing mode                              : zlib
  132. Codec ID                                 : S_HDMV/PGS
  133. Codec ID/Info                            : Picture based subtitle format used on BDs/HD-DVDs
  134. Duration                                 : 2 h 20 min
  135. Bit rate                                 : 35.4 kb/s
  136. Count of elements                        : 3108
  137. Stream size                              : 35.5 MiB (0%)
  138. Language                                 : Spanish
  139. Default                                  : No
  140. Forced                                   : No
  141. Original source medium                   : Blu-ray

  142. Text #6
  143. ID                                       : 9
  144. ID in the original source medium         : 4772 (0x12A4)
  145. Format                                   : PGS
  146. Muxing mode                              : zlib
  147. Codec ID                                 : S_HDMV/PGS
  148. Codec ID/Info                            : Picture based subtitle format used on BDs/HD-DVDs
  149. Duration                                 : 2 h 20 min
  150. Bit rate                                 : 36.2 kb/s
  151. Count of elements                        : 3136
  152. Stream size                              : 36.3 MiB (0%)
  153. Language                                 : Danish
  154. Default                                  : No
  155. Forced                                   : No
  156. Original source medium                   : Blu-ray

  157. Text #7
  158. ID                                       : 10
  159. ID in the original source medium         : 4773 (0x12A5)
  160. Format                                   : PGS
  161. Muxing mode                              : zlib
  162. Codec ID                                 : S_HDMV/PGS
  163. Codec ID/Info                            : Picture based subtitle format used on BDs/HD-DVDs
  164. Duration                                 : 2 h 20 min
  165. Bit rate                                 : 31.3 kb/s
  166. Count of elements                        : 3046
  167. Stream size                              : 31.4 MiB (0%)
  168. Language                                 : Finnish
  169. Default                                  : No
  170. Forced                                   : No
  171. Original source medium                   : Blu-ray

  172. Text #8
  173. ID                                       : 11
  174. ID in the original source medium         : 4774 (0x12A6)
  175. Format                                   : PGS
  176. Muxing mode                              : zlib
  177. Codec ID                                 : S_HDMV/PGS
  178. Codec ID/Info                            : Picture based subtitle format used on BDs/HD-DVDs
  179. Duration                                 : 2 h 20 min
  180. Bit rate                                 : 33.9 kb/s
  181. Count of elements                        : 3112
  182. Stream size                              : 34.0 MiB (0%)
  183. Language                                 : Norwegian
  184. Default                                  : No
  185. Forced                                   : No
  186. Original source medium                   : Blu-ray

  187. Text #9
  188. ID                                       : 12
  189. ID in the original source medium         : 4775 (0x12A7)
  190. Format                                   : PGS
  191. Muxing mode                              : zlib
  192. Codec ID                                 : S_HDMV/PGS
  193. Codec ID/Info                            : Picture based subtitle format used on BDs/HD-DVDs
  194. Duration                                 : 2 h 20 min
  195. Bit rate                                 : 28.8 kb/s
  196. Count of elements                        : 3038
  197. Stream size                              : 28.9 MiB (0%)
  198. Language                                 : Swedish
  199. Default                                  : No
  200. Forced                                   : No
  201. Original source medium                   : Blu-ray

  202. Text #10
  203. ID                                       : 13
  204. ID in the original source medium         : 4776 (0x12A8)
  205. Format                                   : PGS
  206. Muxing mode                              : zlib
  207. Codec ID                                 : S_HDMV/PGS
  208. Codec ID/Info                            : Picture based subtitle format used on BDs/HD-DVDs
  209. Duration                                 : 2 h 20 min
  210. Bit rate                                 : 31.0 kb/s
  211. Count of elements                        : 3552
  212. Stream size                              : 31.1 MiB (0%)
  213. Language                                 : Thai
  214. Default                                  : No
  215. Forced                                   : No
  216. Original source medium                   : Blu-ray

  217. Text #11
  218. ID                                       : 14
  219. ID in the original source medium         : 4777 (0x12A9)
  220. Format                                   : PGS
  221. Muxing mode                              : zlib
  222. Codec ID                                 : S_HDMV/PGS
  223. Codec ID/Info                            : Picture based subtitle format used on BDs/HD-DVDs
  224. Duration                                 : 2 h 20 min
  225. Bit rate                                 : 26.7 kb/s
  226. Count of elements                        : 3134
  227. Stream size                              : 26.8 MiB (0%)
  228. Language                                 : Chinese
  229. Default                                  : No
  230. Forced                                   : No
  231. Original source medium                   : Blu-ray

  232. Text #12
  233. ID                                       : 15
  234. ID in the original source medium         : 4778 (0x12AA)
  235. Format                                   : PGS
  236. Muxing mode                              : zlib
  237. Codec ID                                 : S_HDMV/PGS
  238. Codec ID/Info                            : Picture based subtitle format used on BDs/HD-DVDs
  239. Duration                                 : 2 h 20 min
  240. Bit rate                                 : 24.9 kb/s
  241. Count of elements                        : 3052
  242. Stream size                              : 24.9 MiB (0%)
  243. Language                                 : Chinese
  244. Default                                  : No
  245. Forced                                   : No
  246. Original source medium                   : Blu-ray

  247. Text #13
  248. ID                                       : 16
  249. ID in the original source medium         : 4779 (0x12AB)
  250. Format                                   : PGS
  251. Muxing mode                              : zlib
  252. Codec ID                                 : S_HDMV/PGS
  253. Codec ID/Info                            : Picture based subtitle format used on BDs/HD-DVDs
  254. Duration                                 : 2 h 22 min
  255. Bit rate                                 : 19.7 kb/s
  256. Count of elements                        : 3214
  257. Stream size                              : 20.1 MiB (0%)
  258. Language                                 : Korean
  259. Default                                  : No
  260. Forced                                   : No
  261. Original source medium                   : Blu-ray

  262. Menu
  263. 00:00:00.000                             : Chapter 01
  264. 00:05:03.469                             : Chapter 02
  265. 00:17:43.312                             : Chapter 03
  266. 00:27:41.409                             : Chapter 04
  267. 00:32:02.587                             : Chapter 05
  268. 00:36:36.527                             : Chapter 06
  269. 00:45:26.557                             : Chapter 07
  270. 00:50:38.618                             : Chapter 08
  271. 00:58:40.517                             : Chapter 09
  272. 01:03:34.143                             : Chapter 10
  273. 01:11:44.258                             : Chapter 11
  274. 01:17:28.101                             : Chapter 12
  275. 01:24:46.915                             : Chapter 13
  276. 01:33:48.748                             : Chapter 14
  277. 01:45:23.025                             : Chapter 15
  278. 01:52:32.245                             : Chapter 16
  279. 01:57:40.470                             : Chapter 17
  280. 02:03:30.986                             : Chapter 18
  281. 02:14:01.366                             : Chapter 19
  282. 02:19:06.963                             : Chapter 20
复制代码








                                       
                                       

                                       
                                       
                                       




回复

使用道具 举报

蓝光币
174
发表于 5 天前 | 显示全部楼层

感谢楼主的无私分享!要想蓝光电影网好 就靠你我他
回复 支持 反对

使用道具 举报

蓝光币
25
发表于 3 天前 | 显示全部楼层
感谢楼主分享,感谢蓝光电影网
回复 支持 反对

使用道具 举报

懒得打字嘛,点击右侧快捷回复 【右侧内容,后台自定义】
您需要登录后才可以回帖 登录 | 立即加入

本版积分规则

Archiver|小黑屋| 蓝光电影网 |网站地图

Copyright © 2021 Comsenz Inc. Powered by 蓝光电影网

蓝光电影网

本站内容由用户自主分享和转载自互联网,转载目的在于传递更多信息,并不代表本网赞同其观点和对其真实性负责。

如有侵权、违反国家法律政策行为,请联系我们,我们会第一时间及时清除和处理!

举报反馈邮箱:[email protected]

快速回复 返回顶部 返回列表